Достать ножи: Стеклянная луковица

MVO

Добыча

Дубляж

Уэнсдэй

1 сезон

Тор

Дубляж

13 клиническая

1 сезон

Жестокая ночь

MVO

Одни из нас

1 сезон

Deluxe

pack

Рекомендуем

30

Пиратка

ВАЖНО

ВАЖНО

Ghostwire

Пиратка

jed

RePack

nioh2

RePack

RDR2

RePack

NEED FOR SPEED™ PAYBACK

RePack

скачать торрент

Кинопоиск HD

Острые козырьки 6 сезон

6 сезон

FAR CRY 6

RePack

скачать торрент

Лицензия

скачать торрент

MVO

1

1 сезон

скачать торрент

1 сезон

скачать торрент

Лицензия

  

Мстители: Финал / Avengers: Endgame (Энтони Руссо, Джо Руссо) [2019, фантастика, фэнтези, боевик, UHD WEB-DL 2160p] Дубляж [iTunes]

Мстители: Финал через торрент piratbit.org

Раздают: 1 [ 0 KB/s ]
Размер: 32.34 GB | Добавлен: 3 года 6 мес. назад | Торрент скачан:325 раз
Смотреть онлайн | Скачать | Поддержите нас   

03-08-2019 08:03 Мстители: Финал Скачать торрент  

Мстители: Финал / Avengers: Endgame««Avenge the fallen»»

Год выпуска: 2019
Страна: США
Жанр: фантастика, фэнтези, боевик, приключения
Продолжительность: 03:01:09
Перевод: Дублированный | iTunes
Субтитры: Русские (форсированные, полные), Английские (full)
Режиссер: Энтони Руссо, Джо Руссо

В ролях:

Роберт Дауни мл. (Tony Stark / Iron Man), Крис Эванс (Steve Rogers / Captain America), Марк Руффало (Bruce Banner / Hulk), Крис Хемсворт (Thor), Скарлетт Йоханссон (Natasha Romanoff / Black Widow), Джереми Реннер (Clint Barton / Hawkeye), Дон Чидл (James Rhodes / War Machine), Пол Радд (Scott Lang / Ant-Man), Бри Ларсон (Carol Danvers / Captain Marvel), Карен Гиллан (Nebula), Бенедикт Камбербэтч (Doctor Strange), Чедвик Боузман (T'Challa / Black Panther)
Описание:
Оставшиеся в живых члены команды Мстителей и их союзники должны разработать новый план, который поможет противостоять разрушительным действиям могущественного титана Таноса. После наиболее масштабной и трагической битвы в истории они не могут допустить ошибку.
Рейтинг:

MPAA: PG-13 - Детям до 13 лет просмотр не желателен
Качество: UHD WEB-DL 2160p
Формат: MKV
Видео: HEVC HDR, 24.5 Мбит/с, 3840x2160, 10 бит
Аудио #1: Русский (АС3, 6ch, 384 Кбит/с, 48.0 KHz) Профессиональный (полное дублирование) | iTunes
Аудио #2: Английский (АС3, 6 ch, 640 Кбит/с)
Навигация по главам: есть

Complete name : Avengers.Endgame.2019.2160p.WEB-DL.HDR.x265.mkv
Format : Matroska
Format version : Version 4
File size : 32.3 GiB
Duration : 3 h 1 min
Overall bit rate : 25.5 Mb/s
Movie name : Avengers Endgame (2019) WEB-DL HDR 2160p x265
Encoded date : UTC 2019-08-03 05:31:45
Writing application : mkvmerge v34.0.0 ('Sight and Seen') 64-bit
Writing library : libebml v1.3.7 + libmatroska v1.5.0

Video
ID : 1
Format : HEVC
Format/Info : High Efficiency Video Coding
Format profile : Main 10@L5@High
HDR format : SMPTE ST 2086, HDR10 compatible
Codec ID : V_MPEGH/ISO/HEVC
Duration : 3 h 1 min
Bit rate : 24.5 Mb/s
Width : 3 840 pixels
Height : 1 608 pixels
Original height : 2 160 pixels
Display aspect ratio : 16:9
Frame rate mode : Constant
Frame rate : 23.976 (24000/1001) FPS
Color space : YUV
Chroma subsampling : 4:2:0 (Type 2)
Bit depth : 10 bits
Bits/(Pixel*Frame) : 0.166
Stream size : 31.0 GiB (96%)
Title : by DEFLATE
Language : English
Default : Yes
Forced : No
Color range : Limited
Color primaries : BT.2020
Transfer characteristics : PQ
Matrix coefficients : BT.2020 non-constant
Mastering display color primaries : BT.2020
Mastering display luminance : min: 0.0020 cd/m2, max: 4000 cd/m2
Maximum Content Light Level : 1011 cd/m2
Maximum Frame-Average Light Level : 592 cd/m2

Audio #1
ID : 2
Format : AC-3
Format/Info : Audio Coding 3
Commercial name : Dolby Digital
Codec ID : A_AC3
Duration : 3 h 1 min
Bit rate mode : Constant
Bit rate : 384 kb/s
Channel(s) : 6 channels
Channel layout : L R C LFE Ls Rs
Sampling rate : 48.0 kHz
Frame rate : 31.250 FPS (1536 SPF)
Bit depth : 16 bits
Compression mode : Lossy
Stream size : 499 MiB (2%)
Title : iTunes
Language : Russian
Service kind : Complete Main
Default : Yes
Forced : No

Audio #2
ID : 3
Format : AC-3
Format/Info : Audio Coding 3
Commercial name : Dolby Digital
Codec ID : A_AC3
Duration : 3 h 1 min
Bit rate mode : Constant
Bit rate : 640 kb/s
Channel(s) : 6 channels
Channel layout : L R C LFE Ls Rs
Sampling rate : 48.0 kHz
Frame rate : 31.250 FPS (1536 SPF)
Bit depth : 16 bits
Compression mode : Lossy
Stream size : 829 MiB (3%)
Language : English
Service kind : Complete Main
Default : No
Forced : No

Text #1
ID : 4
Format : UTF-8
Codec ID : S_TEXT/UTF8
Codec ID/Info : UTF-8 Plain Text
Duration : 2 h 17 min
Bit rate : 1 b/s
Count of elements : 34
Stream size : 1.17 KiB (0%)
Title : forced
Language : Russian
Default : Yes
Forced : Yes

Text #2
ID : 5
Format : UTF-8
Codec ID : S_TEXT/UTF8
Codec ID/Info : UTF-8 Plain Text
Duration : 3 h 0 min
Bit rate : 82 b/s
Count of elements : 2627
Stream size : 109 KiB (0%)
Title : full
Language : Russian
Default : No
Forced : No

Text #3
ID : 6
Format : UTF-8
Codec ID : S_TEXT/UTF8
Codec ID/Info : UTF-8 Plain Text
Duration : 2 h 47 min
Bit rate : 50 b/s
Count of elements : 2339
Stream size : 61.6 KiB (0%)
Title : full
Language : English
Default : No
Forced : No

Menu
00:00:00.000 : en:One Last Surprise
00:08:06.069 : en:"To The Garden"
00:20:01.867 : en:Five Years Later
00:26:15.449 : en:"A Time Heist"
00:36:57.340 : en:"Time Travel Do-Over"
00:43:20.765 : en:"I Fixed It"
00:48:44.338 : en:Assembling The Avengers
00:57:36.912 : en:"Get The Stones, Get Them Back"
01:07:12.779 : en:Rogue Transmission
01:16:02.683 : en:New York, 2012
01:26:25.597 : en:Asgard, 2013
01:32:20.285 : en:Morag, 2014
01:38:55.972 : en:New Jersey, 1970
01:48:12.528 : en:Vormir, 2014
01:57:27.082 : en:"I Was Made For This"
02:05:00.410 : en:Thanos' Return
02:15:06.598 : en:Avengers Assemble
02:25:50.617 : en:One Of The 14,000,605
02:34:38.102 : en:"Part Of The Journey Is The End"
02:43:04.066 : en:"Clip All The Branches"
02:49:05.510 : en:End Credits



Скачать Мстители: Финал через торрент https://d.radikal.ru/d37/1908/a2/9261b51e4f9d.png Скачать, смотреть онлайн Мстители: Финал бесплантно в хорошем качестве Описание: Оставшиеся в живых члены команды Мстителей и их союзники должны разработать новый план, который поможет противостоять ... 8.9 10 8
Торрент: Зарегистрирован [2019-08-03 08:03] · скачан: 325 раз
Статус: # сомнительно
Размер: 32.34 GB
Как cкачать? Как скачать Мстители: Финал через торрент | UTorrent

% Раздел Тема Автор DL S | L
3D Фильмы [ 11.87 GB ] Мстители: Финал в 3D / Avengers: Endgame 3D | iTunes | 1080p, Дубляж iTunes slaventi-69 Скачать
1 | 1
Фильмы (HD 720p, 1080p) (48-60 fps) [ 32.13 GB ] Мстители: Финал / Avengers: Endgame | iTunes | 1080p, 60 fps sheker187 Скачать
1 | 0
3D Фильмы [ 17.73 GB ] Мстители: Финал в 3Д / Avengers: Endgame 3D | iTunes | 1080p serega768 Скачать
1 | 0
Фильмы (HD 720p, 1080p) (48-60 fps) [ 6.73 GB ] Мстители: Финал / Avengers: Endgame | iTunes | DLRip 720p / 60 FPS iTunes slaventi-69 Скачать
2 | 1
Фильмы 2019-2020 [DVDrip, WEB-DLRip, HDrip] (DUB, MVO) [ 4 GB ] Мстители: Финал / Avengers: Endgame | iTunes | BDRip-AVC, Дубляж iTunes, MVO, AVO morfyi Скачать
2 | 0
Фильмы [HD 720p, 1080p] (Хороший звук DUB, MVO) [ 8.28 GB ] Мстители: Финал / Avengers: Endgame | iTunes | 1080p, HEVC sheker187 Скачать
2 | 0
Фильмы (Blu-ray, BD-Remux, HDDVD) [ 36.52 GB ] Мстители: Финал / Avengers: Endgame | iTunes | BD Remux 1080p bober100 Скачать
1 | 0

28-11-2019 20:33  


Отключить вcю реклaмy на сайте, в т.ч. и в плеере онлайн просмотра!

03-08-2019 09:39 Мстители: Финал Скачать торрент  

HDR подъехал ,спасибо !!!!



    Дорогой пользователь! Огромная просьба, поблагодарите релизера, оцените раздачу и оставьте свои комментарий, если Вы скачали Мстители: Финал через торрент бесплатно!!
    Комментировать посты могут только пользователи прошедшие не сложную регистрацию
    Показать сообщения:    


    Мстители: Финал через торрент
    Скачать бесплатно Мстители: Финал
    Мстители: Финал скачать торрент
    Мстители: Финал смотреть онлайн
    Cкачать фильм Мстители: Финал бесплатно
    Мстители: Финал скачать торрент в хорошем качестве
    Мстители: Финал смотреть онлайн бесплатно в хорошем качестве
    Вы не можете начинать темы
    Вы не можете отвечать на сообщения
    Вы не можете редактировать свои сообщения
    Вы не можете удалять свои сообщения
    Вы не можете голосовать в опросах
    Вы не можете прикреплять файлы к сообщениям
    Вы можете скачивать файлы
    Мстители: Финал / Avengers: Endgame [2019, фантастика, фэнтези, боевик, UHD WEB-DL 2160p] Дубляж [iTunes] смотреть онлайн, скачать торрент picoco.icu