Доктор Стрэндж

Лицензия

Добыча

Дубляж

Уэнсдэй

1 сезон

Тор

Дубляж

В эфире

Дубляж

Там, где раки поют

MVO

Властелин колец

1 сезон

Deluxe

pack

Рекомендуем

30

Пиратка

ВАЖНО

ВАЖНО

Ghostwire

Пиратка

jed

RePack

nioh2

RePack

RDR2

RePack

NEED FOR SPEED™ PAYBACK

RePack

скачать торрент

Кинопоиск HD

Острые козырьки 6 сезон

6 сезон

FAR CRY 6

RePack

скачать торрент

Лицензия

скачать торрент

MVO

1

1 сезон

скачать торрент

1 сезон

скачать торрент

Лицензия

  

Последняя любовь Казановы / Dernier amour (Бенуа Жако) [2019, история, мелодрама, WEB-DLRip-AVC] MVO [iTunes] - ExKinoRay

Последняя любовь Казановы через торрент piratbit.org

Размер: 1.5 GB | Добавлен: 3 года 4 мес. назад | Торрент скачан:172 раза
Смотреть онлайн | Скачать   

05-08-2019 13:56 Последняя любовь Казановы Скачать торрент  

Название: Последняя любовь Казановы
Оригинальное название: Dernier amour
Год выпуска: 2019
Жанр: история, мелодрама
Режиссер: Бенуа Жако
Актеры: Венсан Линдон, Стэйси Мартин, Валерия Голино, Джулия Рой, Нэнси Тейт, Анна Коттис, Хейли Кармайкл, Кристиан Эриксон, Нэйтан Уиллкокс, Джесутасан Антонитасан

Описание:
После очередного любовного скандала легендарный покоритель женских сердец Казанова, азартный игрок и неутомимый искатель удовольствий, вынужден бежать из Парижа в Лондон. В этом незнакомом, охваченном пороком городе он встречает юную куртизанку Марианну де Шарпийон. Чтобы добиться ее расположения, великий соблазнитель готов на все, но сумасбродная красавица всякий раз ускользает из объятий венецианца. Она сводит Казанову с ума, утверждая, что станет его, как только тот перестанет ее желать…

rating

Производство: Франция, Casa Kafka Pictures, Cine, Cinemage 13, Cofinova Developpement 3, Cohen Media Group, Wild Bunch
Продолжительность: 01:32:45
Перевод: Профессиональный (многоголосый, закадровый) (iTunes)

Формат: MKV
Качество: WEB-DLRip-AVC
Видео: MPEG-4 AVC, 1024x426 (2.40:1), 24.000 fps, 1799 Kbps, 0.172 bit/pixel
Аудио: Russian: AC3, 6 ch, 384 Kbps - Дубляж, iTunes
Субтитры: Русские
General
Unique ID : 211648997706708974618115668019852363529 (0x9F3A1D3EB875E114A27CA9EEF3544709)
Complete name : F:\DRNR.AMR.2019.AVC.ExKinoRay.mkv
Format : Matroska
Format version : Version 2
File size : 1.50 GiB
Duration : 1 h 38 min
Overall bit rate : 2 184 kb/s
Movie name : Последняя любовь Казановы 2019 from ExKinoRay
Encoded date : UTC 2019-08-05 13:14:16
Writing application : mkvmerge v5.6.0 ('Kenya Kane') built on May 27 2012 16:44:04
Writing library : libebml v1.2.3 + libmatroska v1.3.0

Video
ID : 1
Format : AVC
Format/Info : Advanced Video Codec
Format profile : High@L4.1
Format settings, CABAC : Yes
Format settings, ReFrames : 11 frames
Codec ID : V_MPEG4/ISO/AVC
Duration : 1 h 38 min
Bit rate : 1 799 kb/s
Width : 1 024 pixels
Height : 426 pixels
Display aspect ratio : 2.40:1
Frame rate mode : Constant
Frame rate : 24.000 FPS
Color space : YUV
Chroma subsampling : 4:2:0
Bit depth : 8 bits
Scan type : Progressive
Bits/(Pixel*Frame) : 0.172
Stream size : 1.20 GiB (80%)
Title : Enigma
Writing library : x264 core 152 r2851 ba24899
Encoding settings : cabac=1 / ref=11 / deblock=1:-2:-2 / analyse=0x3:0x113 / me=umh / subme=10 / psy=1 / psy_rd=1.05:0.10 / mixed_ref=1 / me_range=32 / chroma_me=1 / trellis=2 / 8x8dct=1 / cqm=0 / deadzone=21,11 / fast_pskip=0 / chroma_qp_offset=-3 / threads=12 / lookahead_threads=3 / sliced_threads=0 / nr=0 / decimate=0 / interlaced=0 / bluray_compat=0 / constrained_intra=0 / bframes=10 / b_pyramid=2 / b_adapt=2 / b_bias=0 / direct=3 / weightb=1 / open_gop=0 / weightp=2 / keyint=240 / keyint_min=24 / scenecut=40 / intra_refresh=0 / rc=2pass / mbtree=0 / bitrate=1799 / ratetol=1.0 / qcomp=0.60 / qpmin=0 / qpmax=51 / qpstep=4 / cplxblur=20.0 / qblur=0.5 / ip_ratio=1.40 / pb_ratio=1.30 / aq=1:1.00
Language : English
Default : Yes
Forced : No
Color range : Limited
Color primaries : BT.709
Transfer characteristics : BT.709
Matrix coefficients : BT.709

Audio
ID : 2
Format : AC-3
Format/Info : Audio Coding 3
Mode extension : CM (complete main)
Format settings, Endianness : Big
Codec ID : A_AC3
Duration : 1 h 38 min
Bit rate mode : Constant
Bit rate : 384 kb/s
Channel(s) : 6 channels
Channel positions : Front: L C R, Side: L R, LFE
Sampling rate : 48.0 kHz
Frame rate : 31.250 FPS (1536 spf)
Compression mode : Lossy
Stream size : 269 MiB (18%)
Title : iTunes
Language : Russian
Default : Yes
Forced : No

Text
ID : 3
Format : UTF-8
Codec ID : S_TEXT/UTF8
Codec ID/Info : UTF-8 Plain Text
Language : Russian
Default : No
Forced : No

Menu
00:00:00.000 : en:Chapter 01
00:08:55.791 : en:Chapter 02
00:18:16.457 : en:Chapter 03
00:26:16.998 : en:Chapter 04
00:34:21.623 : en:Chapter 05
00:45:10.039 : en:Chapter 06
00:54:10.622 : en:Chapter 07
01:03:42.330 : en:Chapter 08
01:10:48.955 : en:Chapter 09
01:19:04.913 : en:Chapter 10
01:28:21.829 : en:Chapter 11


Релиз от: VK релиз-группы

Автор релиза: Enigma



Скачать Последняя любовь Казановы через торрент https://c.radikal.ru/c38/1907/ef/e8a5ce1740ff.jpg Скачать, смотреть онлайн Последняя любовь Казановы бесплантно в хорошем качестве Описание:После очередного любовного скандала легендарный покоритель женских сердец Казанова, азартный игрок и неутомимый искатель ... 10 10 3
Info! Золотая раздача, скачанное не засчитывается.
Торрент: Зарегистрирован [2019-08-05 13:56] · скачан: 172 раз
Статус: √ проверено
Размер: 1.5 GB
Как cкачать? Как скачать Последняя любовь Казановы через торрент | UTorrent

28-11-2019 20:33  


Отключить вcю реклaмy на сайте, в т.ч. и в плеере онлайн просмотра!

    Дорогой пользователь! Огромная просьба, поблагодарите релизера, оцените раздачу и оставьте свои комментарий, если Вы скачали Последняя любовь Казановы через торрент бесплатно!!
    Комментировать посты могут только пользователи прошедшие не сложную регистрацию
    Показать сообщения:    


    Последняя любовь Казановы через торрент
    Скачать бесплатно Последняя любовь Казановы
    Последняя любовь Казановы скачать торрент
    Последняя любовь Казановы смотреть онлайн
    Cкачать фильм Последняя любовь Казановы бесплатно
    Последняя любовь Казановы скачать торрент в хорошем качестве
    Последняя любовь Казановы смотреть онлайн бесплатно в хорошем качестве
    Вы не можете начинать темы
    Вы не можете отвечать на сообщения
    Вы не можете редактировать свои сообщения
    Вы не можете удалять свои сообщения
    Вы не можете голосовать в опросах
    Вы не можете прикреплять файлы к сообщениям
    Вы можете скачивать файлы
    Последняя любовь Казановы / Dernier amour [2019, история, мелодрама, WEB-DLRip-AVC] MVO [iTunes] - ExKinoRay смотреть онлайн, скачать торрент picoco.icu