Доктор Стрэндж

Лицензия

Добыча

Дубляж

Уэнсдэй

1 сезон

Тор

Дубляж

В эфире

Дубляж

Там, где раки поют

MVO

Властелин колец

1 сезон

Deluxe

pack

Рекомендуем

30

Пиратка

ВАЖНО

ВАЖНО

Ghostwire

Пиратка

jed

RePack

nioh2

RePack

RDR2

RePack

NEED FOR SPEED™ PAYBACK

RePack

скачать торрент

Кинопоиск HD

Острые козырьки 6 сезон

6 сезон

FAR CRY 6

RePack

скачать торрент

Лицензия

скачать торрент

MVO

1

1 сезон

скачать торрент

1 сезон

скачать торрент

Лицензия

  

Лучшие враги / The Best of Enemies (Робин Бисселл) [2019 г., драма, биография, история, HDRip, Профессиональный многоголосый "iTunes"]

Лучшие враги через торрент piratbit.org

Размер: 796 MB | Добавлен: 3 года 4 мес. назад | Торрент скачан:35 раз
Смотреть онлайн | Скачать   

06-08-2019 18:33 Лучшие враги Скачать торрент  

Лучшие враги / The Best of Enemies
Год выпуска: 2019
Страна: США / Astute Films, Material Pictures
Жанр: драма, биография, история
Продолжительность: 02:13:47
Перевод: Профессиональный многоголосый (iTunes)
Субтитры: русские форсированные - вшитые

Режиссер: Робин Бисселл

rating

В ролях: Тараджи П. Хенсон, Сэм Рокуэлл, Бабу Сизей, Энн Хеч, Уэс Бентли, Ник Сирси, Брюс МакГилл, Джон Галлахер мл., Ник Ковальчук, Гилберт Гленн Браун

Описание: История о невероятной дружбе между чернокожей правозащитницей Энн Атуотер и членом Ку-клукс-клана Клэйборном Эллисом. Они были ожесточёнными противниками, пока не попали в один комитет по решению расового разделения в школе. Давних врагов объединяет забота о будущем своих детей.

Качество: HDRip
Формат: AVI
Видео кодек: XviD
Аудио кодек: MP3
Видео: 640x272 (2.35:1), 23.976 fps, XviD build 50 ~694 kbps avg, 0.17 bit/pixel
Аудио: 48 kHz, MPEG Layer 3, 2 ch, ~128.00 kbps avg
скриншот   скриншот   скриншот   скриншот   скриншот   скриншот   скриншот   скриншот  

Общее
Полное имя : F:\ФИЛЬМЫ\Лучшие враги.2019.HDRip.avi
Формат : AVI
Формат/Информация : Audio Video Interleave
Размер файла : 796 Мбайт
Продолжительность : 2 ч. 13 м.
Общий поток : 832 Кбит/сек
Программа кодирования : VirtualDubMod 1.5.10.3 | www.virtualdub-fr.org || (build 2550/release)
Библиотека кодирования : VirtualDubMod build 2550/release

Видео
Идентификатор : 0
Формат : MPEG-4 Visual
Профиль формата : Advanced Simple@L5
Настройки формата : BVOP3 / GMC3 / QPel
Параметр BVOP формата : 3
Параметр QPel формата : Да
Параметр GMC формата : 3 точки перехода
Параметр матрицы формата : Default (MPEG)
Идентификатор кодека : XVID
Идентификатор кодека/Подсказка : XviD
Продолжительность : 2 ч. 13 м.
Битрейт : 695 Кбит/сек
Ширина : 640 пикселей
Высота : 272 пикселя
Соотношение сторон : 2,35:1
Частота кадров : 23,976 (24000/1001) кадра/сек
Цветовое пространство : YUV
Субдискретизация насыщенности : 4:2:0
Битовая глубина : 8 бит
Тип развёртки : Прогрессивная
Метод сжатия : С потерями
Бит/(Пиксели*Кадры) : 0.166
Размер потока : 665 Мбайт (83%)
Библиотека кодирования : XviD 1.2.1 (UTC 2008-12-04)

Аудио
Идентификатор : 1
Формат : MPEG Audio
Версия формата : Version 1
Профиль формата : Layer 3
Настройки формата : Joint stereo / MS Stereo
Идентификатор кодека : 55
Идентификатор кодека/Подсказка : MP3
Продолжительность : 2 ч. 13 м.
Вид битрейта : Постоянный
Битрейт : 128 Кбит/сек
Каналы : 2 канала
Частота : 48,0 КГц
Частота кадров : 41,667 кадра/сек (1152 SPF)
Метод сжатия : С потерями
Размер потока : 122 Мбайт (15%)
Выравнивание : Соединение по промежуткам
Продолжительность промежутка : 42 мс. (1,00 видеокадр)
Время предзагрузки промежутка : 504 мс.
Библиотека кодирования : LAME3.99r
Настройки программы : -m j -V 4 -q 2 -lowpass 17 -b 128




Скачать Лучшие враги через торрент https://pic1.kartinco.top/images/12/c2yf6.jpg Скачать, смотреть онлайн Лучшие враги бесплантно в хорошем качестве Описание: История о невероятной дружбе между чернокожей правозащитницей Энн Атуотер и членом Ку-клукс-клана Клэйборном Эллисом. Они были ... 10 10 3
Торрент: Зарегистрирован [2019-08-06 19:14] · скачан: 35 раз
Статус: √ проверено
Размер: 796 MB
Как cкачать? Как скачать Лучшие враги через торрент | UTorrent

% Раздел Тема Автор DL S | L
Фильмы 2019-2020 [DVDrip, WEB-DLRip, HDrip] (DUB, MVO) [ 2.62 GB ] Лучшие враги / The Best of Enemies | iTunes | BDRip-AVC bober100 Скачать
1 | 0
Фильмы (Blu-ray, BD-Remux, HDDVD) [ 35.78 GB ] Лучшие враги / The Best of Enemies | iTunes | BD Remux 1080p bober100 Скачать
1 | 0
Фильмы [HD 720p, 1080p] (Хороший звук DUB, MVO) [ 15.7 GB ] Лучшие враги / The Best of Enemies | iTunes | 1080p bober100 Скачать
1 | 0
Фильмы 2019-2020 [DVDrip, WEB-DLRip, HDrip] (DUB, MVO) [ 1.45 GB ] Лучшие враги / The Best of Enemies | iTunes | BDRip-AVC Enigma2010 Скачать
5 | 0
Фильмы 2019-2020 [DVDrip, WEB-DLRip, HDrip] (DUB, MVO) [ 1.46 GB ] Лучшие враги / The Best of Enemies | iTunes | BDRip bober100 Скачать
1 | 0
Фильмы 2019-2020 [DVDrip, WEB-DLRip, HDrip] (DUB, MVO) [ 2.12 GB ] Лучшие враги / The Best of Enemies | iTunes | BDRip bober100 Скачать
1 | 0
T Фильмы (WEB-DL 720p, 1080p) [ 4.81 GB ] Лучшие враги / The Best of Enemies | HDRezka Studio | 1080p Enigma2010 Скачать
1 | 0

28-11-2019 20:33  


Отключить вcю реклaмy на сайте, в т.ч. и в плеере онлайн просмотра!

    Дорогой пользователь! Огромная просьба, поблагодарите релизера, оцените раздачу и оставьте свои комментарий, если Вы скачали Лучшие враги через торрент бесплатно!!
    Комментировать посты могут только пользователи прошедшие не сложную регистрацию
    Показать сообщения:    


    Лучшие враги через торрент
    Скачать бесплатно Лучшие враги
    Лучшие враги скачать торрент
    Лучшие враги смотреть онлайн
    Cкачать фильм Лучшие враги бесплатно
    Лучшие враги скачать торрент в хорошем качестве
    Лучшие враги смотреть онлайн бесплатно в хорошем качестве
    Вы не можете начинать темы
    Вы не можете отвечать на сообщения
    Вы не можете редактировать свои сообщения
    Вы не можете удалять свои сообщения
    Вы не можете голосовать в опросах
    Вы не можете прикреплять файлы к сообщениям
    Вы можете скачивать файлы
    Лучшие враги / The Best of Enemies [2019 г., драма, биография, история, HDRip, Профессиональный многоголосый "iTunes"] смотреть онлайн, скачать торрент picoco.icu