Достать ножи: Стеклянная луковица

MVO

Добыча

Дубляж

Уэнсдэй

1 сезон

Тор

Дубляж

13 клиническая

1 сезон

Жестокая ночь

MVO

Одни из нас

1 сезон

Deluxe

pack

Рекомендуем

30

Пиратка

ВАЖНО

ВАЖНО

Ghostwire

Пиратка

jed

RePack

nioh2

RePack

RDR2

RePack

NEED FOR SPEED™ PAYBACK

RePack

скачать торрент

Кинопоиск HD

Острые козырьки 6 сезон

6 сезон

FAR CRY 6

RePack

скачать торрент

Лицензия

скачать торрент

MVO

1

1 сезон

скачать торрент

1 сезон

скачать торрент

Лицензия

  

Тор / Thor (Кеннет Брана, Джосс Уидон) [2011 г., Фэнтези, боевик, приключения, UHD BDRemux 2160p] Дубляж (rus, ukr) + 2xAVO + VO

Тор через торрент piratbit.org

Раздают: 1 [ 0 KB/s ]
Размер: 55.86 GB | Добавлен: 3 года 5 мес. назад | Торрент скачан:102 раза
Смотреть онлайн | Скачать | Поддержите нас   

09-08-2019 13:36 Тор Скачать торрент  

Тор / Thor««Мужество бессмертно»»

Год выпуска: 2011
Страна: США
Жанр: фантастика, фэнтези, боевик, приключения
Продолжительность: 01:54:50
Перевод: Дублированный, авторский, любительский одноголосый
Субтитры: Русские (3 x Full), украинские, английские
Режиссер: Кеннет Брана, Джосс Уидон
В ролях:

Крис Хемсворт (Thor), Натали Портман (Jane Foster), Том Хиддлстон (Loki), Энтони Хопкинс (Odin), Стеллан Скарсгард (Erik Selvig), Кэт Деннингс (Darcy Lewis), Кларк Грегг (Agent Coulson), Колм Фиор (King Laufey), Идрис Эльба (Heimdall), Рэй Стивенсон (Volstagg), Таданобу Асано (Hogun), Джошуа Даллас (Fandral)
Описание:
Эпическое приключение происходит как на нашей планете Земля, так и в вымышленном королевстве богов Асгарде. В центре истории — Могучий Тор, сильный, но высокомерный воин, чьи безрассудные поступки возрождают древнюю войну в Асгарде. Тора отправляют в ссылку на Землю, лишают сил и заставляют жить среди обычных людей в качестве наказания…
Рейтинг:

MPAA: PG-13 - Детям до 13 лет просмотр не желателен

Качество: UHD BDRemux 2160p
Формат: MKV
Видео: 3840x2160 at 23.976 fps, MPEG-H HEVC HDR Video, 54800 kbps avg
Аудио #01: 48 kHz, AC3, 5.1, 640 Kbps | Лицензия | RUS
Аудио #02: 48 kHz, DTS, 5.1, 1510 Kbps | Гаврилов | RUS
Аудио #03: 48 kHz, DTS-HD MA, 7.1, 5064 Kbps | Сербин | RUS
Аудио #04: 48 kHz, DTS-ES, 6.1, 1510 Kbps | zamez | RUS
Аудио #05: 48 kHz, AC3, 5.1, 448 Kbps | Дублированный | UKR
Аудио #06: 48 kHz, TrueHD, 7.1, 4938 Kbps | Оригинал | ENG
Аудио #07: 48 kHz, AC3, 5.1, 640 Kbps | Оригинал | ENG
Навигация по главам: Есть

General
Unique ID : 57813152450356092244103171648108135008 (0x2B7E687C69232012277F52547D308260)
Complete name : D:\Video111\Thor.2011.BDREMUX.2160p.HDR.seleZen.mkv
Format : Matroska
Format version : Version 4
File size : 55.9 GiB
Duration : 1 h 54 min
Overall bit rate mode : Variable
Overall bit rate : 69.6 Mb/s
Movie name : Thor 2011 4K from селезень
Encoded date : UTC 2019-08-09 12:48:18
Writing application : mkvmerge v22.0.0 ('At The End Of The World') 64-bit
Writing library : libebml v1.3.5 + libmatroska v1.4.8

Video
ID : 1
Format : HEVC
Format/Info : High Efficiency Video Coding
Format profile : Main 10@L5.1@High
HDR format : SMPTE ST 2086, HDR10 compatible
Codec ID : V_MPEGH/ISO/HEVC
Duration : 1 h 54 min
Bit rate : 54.8 Mb/s
Width : 3 840 pixels
Height : 2 160 pixels
Display aspect ratio : 16:9
Frame rate mode : Constant
Frame rate : 23.976 (24000/1001) FPS
Color space : YUV
Chroma subsampling : 4:2:0 (Type 2)
Bit depth : 10 bits
Bits/(Pixel*Frame) : 0.276
Stream size : 44.0 GiB (79%)
Language : English
Default : Yes
Forced : No
Color range : Limited
Color primaries : BT.2020
Transfer characteristics : PQ
Matrix coefficients : BT.2020 non-constant
Mastering display color pri : Display P3
Mastering display luminance : min: 0.0050 cd/m2, max: 4000 cd/m2
Maximum Content Light Level : 566 cd/m2
Maximum Frame-Average Light : 561 cd/m2

Audio #1
ID : 2
Format : AC-3
Format/Info : Audio Coding 3
Commercial name : Dolby Digital
Codec ID : A_AC3
Duration : 1 h 54 min
Bit rate mode : Constant
Bit rate : 640 kb/s
Channel(s) : 6 channels
Channel layout : L R C LFE Ls Rs
Sampling rate : 48.0 kHz
Frame rate : 31.250 FPS (1536 SPF)
Bit depth : 16 bits
Compression mode : Lossy
Stream size : 526 MiB (1%)
Title : Дубляж [License]
Language : Russian
Service kind : Complete Main
Default : Yes
Forced : Yes

Audio #2
ID : 3
Format : DTS
Format/Info : Digital Theater Systems
Codec ID : A_DTS
Duration : 1 h 54 min
Bit rate mode : Constant
Bit rate : 1 509 kb/s
Channel(s) : 6 channels
Channel layout : C L R Ls Rs LFE
Sampling rate : 48.0 kHz
Frame rate : 93.750 FPS (512 SPF)
Bit depth : 24 bits
Compression mode : Lossy
Stream size : 1.21 GiB (2%)
Title : AVO [Gavrilov]
Language : Russian
Default : No
Forced : No

Audio #3
ID : 4
Format : DTS XLL
Format/Info : Digital Theater Systems
Commercial name : DTS-HD Master Audio
Codec ID : A_DTS
Duration : 1 h 54 min
Bit rate mode : Variable
Bit rate : 5 064 kb/s
Channel(s) : 8 channels
Channel layout : C L R LFE Lb Rb Lss Rss
Sampling rate : 48.0 kHz
Frame rate : 93.750 FPS (512 SPF)
Bit depth : 24 bits
Compression mode : Lossless
Stream size : 4.06 GiB (7%)
Title : AVO [Serbin]
Language : Russian
Default : No
Forced : No

Audio #4
ID : 5
Format : DTS ES
Format/Info : Digital Theater Systems
Commercial name : DTS-ES Matrix
Codec ID : A_DTS
Duration : 1 h 54 min
Bit rate mode : Constant
Bit rate : 1 509 kb/s
Channel(s) : 6 channels
Channel(s)_Original : 7 channels
ChannelLayout_Original : C L R Ls Rs Cs LFE
Sampling rate : 48.0 kHz
Frame rate : 93.750 FPS (512 SPF)
Bit depth : 24 bits
Compression mode : Lossy
Stream size : 1.21 GiB (2%)
Title : VO [zamez]
Language : Russian
Default : No
Forced : No

Audio #5
ID : 6
Format : AC-3
Format/Info : Audio Coding 3
Commercial name : Dolby Digital
Codec ID : A_AC3
Duration : 1 h 54 min
Bit rate mode : Constant
Bit rate : 448 kb/s
Channel(s) : 6 channels
Channel layout : L R C LFE Ls Rs
Sampling rate : 48.0 kHz
Frame rate : 31.250 FPS (1536 SPF)
Bit depth : 16 bits
Compression mode : Lossy
Stream size : 368 MiB (1%)
Title : Дубляж [DVD]
Language : Ukrainian
Service kind : Complete Main
Default : No
Forced : No

Audio #6
ID : 7
Format : MLP FBA 16-ch
Format/Info : Meridian Lossless Packing FBA with 16-channel presentation
Commercial name : Dolby TrueHD with Dolby Atmos
Codec ID : A_TRUEHD
Duration : 1 h 54 min
Bit rate mode : Variable
Bit rate : 4 938 kb/s
Maximum bit rate : 8 058 kb/s
Channel(s) : 8 channels
Channel layout : L R C LFE Ls Rs Lb Rb
Sampling rate : 48.0 kHz
Frame rate : 1 200.000 FPS (40 SPF)
Compression mode : Lossless
Stream size : 3.96 GiB (7%)
Title : Original
Language : English
Default : No
Forced : No
Number of dynamic objects : 13
Bed channel count : 1 channel
Bed channel configuration : LFE

Audio #7
ID : 8
Format : AC-3
Format/Info : Audio Coding 3
Commercial name : Dolby Digital
Codec ID : A_AC3
Duration : 1 h 54 min
Bit rate mode : Constant
Bit rate : 640 kb/s
Channel(s) : 6 channels
Channel layout : L R C LFE Ls Rs
Sampling rate : 48.0 kHz
Frame rate : 31.250 FPS (1536 SPF)
Bit depth : 16 bits
Compression mode : Lossy
Stream size : 526 MiB (1%)
Language : English
Service kind : Complete Main
Default : No
Forced : No

Text #1
ID : 9
Format : UTF-8
Codec ID : S_TEXT/UTF8
Codec ID/Info : UTF-8 Plain Text
Duration : 1 h 53 min
Bit rate : 63 b/s
Count of elements : 1104
Stream size : 52.6 KiB (0%)
Title : Full [License]
Language : Russian
Default : No
Forced : No

Text #2
ID : 10
Format : UTF-8
Codec ID : S_TEXT/UTF8
Codec ID/Info : UTF-8 Plain Text
Duration : 1 h 53 min
Bit rate : 70 b/s
Count of elements : 1098
Stream size : 58.5 KiB (0%)
Title : Full [Voronine]
Language : Russian
Default : No
Forced : No

Text #3
ID : 11
Format : UTF-8
Codec ID : S_TEXT/UTF8
Codec ID/Info : UTF-8 Plain Text
Duration : 1 h 53 min
Bit rate : 73 b/s
Count of elements : 1174
Stream size : 61.6 KiB (0%)
Title : SDH [Voronine]
Language : Russian
Default : No
Forced : No

Text #4
ID : 12
Format : UTF-8
Codec ID : S_TEXT/UTF8
Codec ID/Info : UTF-8 Plain Text
Duration : 1 h 53 min
Bit rate : 55 b/s
Count of elements : 1105
Stream size : 46.1 KiB (0%)
Title : Full [License]
Language : Ukrainian
Default : No
Forced : No

Text #5
ID : 13
Format : UTF-8
Codec ID : S_TEXT/UTF8
Codec ID/Info : UTF-8 Plain Text
Duration : 1 h 53 min
Bit rate : 39 b/s
Count of elements : 1091
Stream size : 32.9 KiB (0%)
Title : Full
Language : English
Default : No
Forced : No

Menu
00:00:00.000 : en:Chapter 01
00:10:37.637 : en:Chapter 02
00:17:32.635 : en:Chapter 03
00:26:02.102 : en:Chapter 04
00:32:27.696 : en:Chapter 05
00:37:27.912 : en:Chapter 06
00:42:13.698 : en:Chapter 07
00:52:09.877 : en:Chapter 08
01:01:24.472 : en:Chapter 09
01:08:45.038 : en:Chapter 10
01:15:38.659 : en:Chapter 11
01:21:18.749 : en:Chapter 12
01:30:34.846 : en:Chapter 13
01:40:57.677 : en:Chapter 14
01:45:13.224 : en:Chapter 15
01:53:05.696 : en:Chapter 16



Скачать Тор через торрент https://b.radikal.ru/b36/1908/df/b155ea24401e.png Скачать, смотреть онлайн Тор бесплантно в хорошем качестве Описание: Эпическое происходит как на нашей планете Земля, так и в вымышленном королевстве богов Асгарде. В центре истории — ... 10 10 3
Info! Золотая раздача, скачанное не засчитывается.
Торрент: Зарегистрирован [2019-08-09 13:36] · скачан: 102 раз
Статус: √ проверено
Размер: 55.86 GB
Как cкачать? Как скачать Тор через торрент | UTorrent

28-11-2019 20:33  


Отключить вcю реклaмy на сайте, в т.ч. и в плеере онлайн просмотра!

    Дорогой пользователь! Огромная просьба, поблагодарите релизера, оцените раздачу и оставьте свои комментарий, если Вы скачали Тор через торрент бесплатно!!
    Комментировать посты могут только пользователи прошедшие не сложную регистрацию
    Показать сообщения:    


    Тор через торрент
    Скачать бесплатно Тор
    Тор скачать торрент
    Тор смотреть онлайн
    Cкачать фильм Тор бесплатно
    Тор скачать торрент в хорошем качестве
    Тор смотреть онлайн бесплатно в хорошем качестве
    Вы не можете начинать темы
    Вы не можете отвечать на сообщения
    Вы не можете редактировать свои сообщения
    Вы не можете удалять свои сообщения
    Вы не можете голосовать в опросах
    Вы не можете прикреплять файлы к сообщениям
    Вы можете скачивать файлы
    Тор / Thor [2011 г., Фэнтези, боевик, приключения, UHD BDRemux 2160p] Дубляж + 2xAVO + VO смотреть онлайн, скачать торрент picoco.icu