1 сезон

3 сезон

iTunes

1

iTunes

DUB Netflix

iTunes

13

1 сезон

RePack

30

Deluxe

pack

Легкие деньги

ВАЖНО

ИГРА 18+

pack

RePack

MK11

RePack

jed

RePack

fifa19

RePack

RDR2

RePack

NEED FOR SPEED™ PAYBACK

4 сезон

9 сезон

Бесстыжие 9 сезон

Все сериалы

все сериалы на PB.wtf

RePack

FAR CRY 5

Anonymous, добрый день, мы не успеваем до 1 числа собрать деньги на оплату серверов, помогите нам пожалуйста в это трудное время. В качестве благодарности мы отключим Вам всю рекламу на сайте (укажите свой ник в строку Ваше имя)!

×
  
Magnet ссылка

Родители / Сезон: 2 / Серии: 1-20 из 20 (Александр Жигалкин) [2019, комедия, семейный, WEB-DL 1080p] piratbit.org

Родители через торрент piratbit.org

Размер: 16.66 GB | Добавлен: 1 год 9 мес. назад | Торрент скачан:13 раз
Скачать  

09-08-2019 18:11 Родители Скачать торрент  

Родители Год выпуска: 2019
Страна: Россия
Жанр: комедия, семейный
Продолжительность: ~ 00:25:00 серия
Субтитры: отсутствуют

Режиссер: Александр Жигалкин



В ролях: Мария Порошина, Александр Самойленко, Александр Самойленко мл., Никита Митасов, Алексей Юрченко, Анастасия Крылова, Аксиния Кортнева

Описание: Прошло пять лет. Все в семье Соколовых подросли и повзрослели, кроме папы. Илья увлёкся киберспортом, Макс — наукой, а Тимофей уехал учиться в Германию. Его возвращение станет для родных сюрпризом — старший сын приезжает с невестой, и она установит свои правила. «РОДИТЕЛИ» — сериал, где есть место не только меткому семейному юмору, но и доле лирики, и даже философии. В общем, настоящее семейное шоу.

Качество: WEB-DL 1080p
Формат: MKV

Видео: MPEG4 AVC Video, H264, 16:9, 1920x1080, 25 fps, ~5000 kbps, 0.096 bit/pixel
Аудио: AC3 Dolby Digital, 48.0 kHz, 2/0 (L,R) ch, 192 kbps
скриншот  скриншот  скриншот  скриншот  скриншот  

General
Unique ID : 180864526622896996284948298759985218068 (0x88113DA31B1151B8B98091D5334CC214)
Complete name : D:\Roditeli.S02.2019.WEB-DL.(1080p).Getty\Roditeli.s02e01.2019.WEB-DL.(1080p).Getty.mkv
Format : Matroska
Format version : Version 4 / Version 2
File size : 865 MiB
Duration : 23 min 18 s
Overall bit rate mode : Constant
Overall bit rate : 5 192 kb/s
Movie name : Roditeli.s02e01.2019.WEB-DL.(1080p).Getty
Encoded date : UTC 2019-07-26 01:59:27
Writing application : mkvmerge v7.8.0 ('River Man') 32bit built on Mar 27 2015 16:18:02
Writing library : libebml v1.3.1 + libmatroska v1.4.2

Video
ID : 1
Format : AVC
Format/Info : Advanced Video Codec
Format profile : Baseline@L4
Format settings : 4 Ref Frames
Format settings, CABAC : No
Format settings, ReFrames : 4 frames
Codec ID : V_MPEG4/ISO/AVC
Duration : 23 min 18 s
Bit rate mode : Constant
Bit rate : 5 000 kb/s
Width : 1 920 pixels
Height : 1 080 pixels
Display aspect ratio : 16:9
Frame rate mode : Constant
Frame rate : 25.000 FPS
Standard : PAL
Color space : YUV
Chroma subsampling : 4:2:0
Bit depth : 8 bits
Scan type : Progressive
Bits/(Pixel*Frame) : 0.096
Stream size : 833 MiB (96%)
Default : Yes
Forced : No
Color range : Limited
Color primaries : BT.709
Transfer characteristics : BT.709
Matrix coefficients : BT.709

Audio
ID : 2
Format : AC-3
Format/Info : Audio Coding 3
Codec ID : A_AC3
Duration : 23 min 18 s
Bit rate mode : Constant
Bit rate : 192 kb/s
Channel(s) : 2 channels
Channel positions : Front: L R
Sampling rate : 48.0 kHz
Frame rate : 31.250 FPS (1536 SPF)
Bit depth : 16 bits
Compression mode : Lossy
Stream size : 32.0 MiB (4%)
Service kind : Complete Main
Default : Yes
Forced : No

Внимание! Раздача ведётся путём добавления новых серий; при каждом добавлении создаётся новый торрент. Чтобы начать докачку новой серии, пользователям необходимо сделать следующее:
Остановить скачивание.
Удалить старый торрент у себя из клиента (старые серии удалять не надо).
Скачать новый торрент и запустить его у себя в клиенте вместо старого, при этом указать клиенту путь в старую папку куда и должно происходить скачивание новых серий.

Ваш клиент при этом должен произвести хеширование (проверку) старой папки (если не производит сам - помогите ему сделать это), и будет докачивать только те серии которых у вас ещё нет. Старые серии при этом не удаляются, а продолжают раздаваться!
Eсли вы уже удалили старые серии, то предотвратить повторную закачку старых серий можно, отжав галочку в соответсвующих местах при запуске нового торрента. По возможности, желательно не удалять старые серии как можно дольше чтобы релизёр не столько продолжал раздавать старые серии, а смог сконцентрироваться на новых.
piratbit.org



Скачать Родители через торрент https://i86.fastpic.ru/big/2019/0809/d0/58281afa05762eab7f605557b08bb7d0.jpg Скачать фильм Родители через торрент бесплантно в хорошем качестве Описание: Прошло пять лет. Все в семье Соколовых подросли и повзрослели, кроме папы. Илья увлёкся киберспортом, Макс — наукой, а Тимофей ... 10 10 5
Торрент: Зарегистрирован [2019-09-12 04:40] · скачан: 13 раз
Статус: √ проверено
Размер: 16.66 GB
Как cкачать? Как скачать Родители через торрент | UTorrent

% Раздел Тема Автор DL S | L
TNT serials [ 10.26 GB ] Родители / Сезон: 2 / Серии: 1-20 из 20 [2019 WEB-DL 720p] bober100 Скачать
1 | 0
TNT serials [ 5.96 GB ] Родители / Сезон: 2 / Серии: 1-20 из 20 [2019 WEBRip-AVC] bober100 Скачать
1 | 0
TNT serials [ 5.87 GB ] Родители / Сезон: 2 / Серии: 1-20 из 20 [2019 WEB-DLRip] bober100 Скачать
1 | 0

28-11-2019 20:33  

Отключить всю рекламу на сайте


    Дорогой пользователь! Огромная просьба, поблагодарите релизера, оцените раздачу и оставьте свои комментарий, если Вы скачали Родители через торрент бесплатно! Внесите свою лепту в развитие PiratBit!
    Комментировать посты могут только пользователи прошедшие не сложную регистрацию
    Показать сообщения:    

    Родители через торрент
    Скачать бесплатно Родители
    Родители скачать торрент
    Родители смотреть онлайн
    Cкачать фильм Родители бесплатно
    Родители скачать торрент в хорошем качестве
    Родители смотреть онлайн бесплатно в хорошем качестве


    Вы не можете начинать темы
    Вы не можете отвечать на сообщения
    Вы не можете редактировать свои сообщения
    Вы не можете удалять свои сообщения
    Вы не можете голосовать в опросах
    Вы не можете прикреплять файлы к сообщениям
    Вы можете скачивать файлы