Достать ножи: Стеклянная луковица

MVO

Добыча

Дубляж

Уэнсдэй

1 сезон

Тор

Дубляж

13 клиническая

1 сезон

Жестокая ночь

MVO

Одни из нас

1 сезон

Deluxe

pack

Рекомендуем

30

Пиратка

ВАЖНО

ВАЖНО

Ghostwire

Пиратка

jed

RePack

nioh2

RePack

RDR2

RePack

NEED FOR SPEED™ PAYBACK

RePack

скачать торрент

Кинопоиск HD

Острые козырьки 6 сезон

6 сезон

FAR CRY 6

RePack

скачать торрент

Лицензия

скачать торрент

MVO

1

1 сезон

скачать торрент

1 сезон

скачать торрент

Лицензия

  

Трансформеры / Transformers (Майкл Бэй) [2007, Фантастика, боевик, UHD BDRemux 2160p] Дубляж (rus, ukr) [Лицензия] +2xMVO+2xDVO+2xAVO

Трансформеры через торрент piratbit.org

Размер: 96.78 GB | Добавлен: 3 года 5 мес. назад | Торрент скачан:32 раза
Смотреть онлайн | Скачать | Поддержите нас   

09-08-2019 21:04 Трансформеры Скачать торрент  

Трансформеры / Transformers
Год выпуска: 2007
Страна: США
Жанр: Фантастика, боевик
Продолжительность: 02:23:27
Перевод: Дублированный, профессиональный многоголосый, профессиональный двухголосый, авторский
Субтитры: English, Russian (Full-length: BD EUR, Киномания; Forced), Ukrainian (Full-length, Forced)

Режиссер: Майкл Бэй

rating

В ролях:

Шайа ЛаБаф, Меган Фокс, Джош Дюамель, Тайриз Гибсон, Джон Туртурро, Рэйчел Тейлор, Энтони Андерсон, Джон Войт, Кевин Данн, Джули Уайт, Майкл О’Нил, Амори Ноласко
Описание: В течение многих столетий две расы роботов-инопланетян — Автоботы и Десептиконы — вели войну, ставкой в которой была судьба Вселенной. И вот война докатилась до Земли. В то время, когда силы зла ищут ключ к верховной власти, наш последний шанс на спасение находится в руках юного землянина. Единственное, что стоит между несущими зло Десептиконами и высшей властью — это ключ, находящийся в руках простого парнишки.

Обычный подросток, Сэм Уитвикки озабочен повседневными хлопотами — школа, друзья, машины, девочки. Не ведая о том, что он является последним шансом человечества на спасение, Сэм вместе со своей подругой Микаэлой оказывается вовлеченным в противостояние Автоботов и Десептиконов. Только тогда Сэм понимает истинное значение семейного девиза Уитвикки — «без жертв нет победы!»

Качество: UHD BDRemux 2160p
Формат: MKV

Видео: HEVC HDR, 61846 Кбит/с, 3840x2160, 23.976 кадр/с
Аудио#1: Russian: 48 kHz/24-bit, DTS-HD MA 5.1, ~4136.00 kbps avg |Дубляж|
Аудио#2: Russian: 48 kHz, AC3, 3/2 (L,C,R,l,r) + LFE ch, ~640 kbps avg |Дубляж|
Аудио#3: Russian: 48 kHz, AC3, 3/2 (L,C,R,l,r) + LFE ch, ~448 kbps avg |Многоголосый закадровый, Киномания|
Аудио#4: Russian: 48 kHz, AC3, 2/0 (L,R) ch, ~192 kbps avg |Двухголосый закадровый, Супербит|
Аудио#5: Ukrainian: 48 kHz, AC3, 3/2 (L,C,R,l,r) + LFE ch, ~448 kbps avg |Дубляж|
Аудио#6: Russian: 48 kHz/24-bit, DTS-HD MA 7.1, ~4842.00 kbps avg |Одноголосый закадровый, Андрей Гаврилов|
Аудио#7: Russian: 48 kHz/24-bit, DTS-HD MA 7.1, ~4880.00 kbps avg |Одноголосый закадровый, Юрий Живов|
Аудио#8: Russian: 48 kHz/24-bit, DTS-HD MA 7.1, ~4861.00 kbps avg |Двухголосый закадровый, Пётр Иващенко и Инна Королёва|
Аудио#9: Russian: 48 kHz/24-bit, DTS-HD MA 7.1, ~4869.00 kbps avg |Многоголосый закадровый, Позитив-мультимедия|
Аудио#10: English: 48 kHz/24-bit, DTS-HD MA 7.1, ~4392.00 kbps avg
Аудио#11: English: 48 kHz, AC3, 2/0 (L,R) ch, ~192 kbps avg |Commentary by director Michael Bay|
Аудио#12: English: 48 kHz/24-bit, Dolby TrueHD with Dolby Atmos 7.1, ~4077.00 kbps avg
Аудио#13: English: 48 kHz, AC3, 3/2 (L,C,R,l,r) + LFE ch, ~640 kbps avg
Оскар, 2008 год
Номинации (3):
Лучший звук
Лучший монтаж звука
Лучшие визуальные эффекты

Премия канала «MTV», 2008 год
Победитель (1):
Лучший фильм

Номинации (2):
Лучшая мужская роль (Шайа ЛаБаф)
Прорыв года (Меган Фокс)

Сатурн, 2008 год
Победитель (1):
Лучшие спецэффекты

Номинации (1):
Лучший научно-фантастический фильм

Премия канала «MTV», 2007 год
Победитель (1):
Лучший фильм лета, который вы еще не видели

- Слоган к фильму «Наш мир. Их война» должен был появиться на постерах к картине «Чужой против хищника», но в самый последний момент был заменен на «Кто бы не победил… мы проиграем».
- По словам создателей спецэффектов из ILM на рендеринг каждого кадра с CGI-анимацией тратилось около 38 часов. Прежним рекордом владела студия Weta Workshop, в ходе работы над фильмом «Властелин колец: Две башни» тратившая на обработку кадра по 20 часов.
- Продюсер картины Дон Мерфи после общения с фанатами френчайза, решил прибегнуть к использованию хорошо знакомых голосов из сериала «Трансформеры». Ветераны Питер Каллен и Фрэнк Уелкер, голосами которых разговаривали лидеры трансформеров – Оптимус Прайм и Мегатрон, прослушивались персонально самим Майклом Бэем, боявшимся, что их постаревшие голоса могут не подойти. Опасения оправдались ровно на половину: голос Каллена был утвержден, а голос Уелкера был заменен на голос Хьюго Уивинга, известного по роли агента Смита в «Матрице».
- В первоначальный вариант сценария была включена Арси (Arcee), считавшаяся одним из самых женственных автоботов, что не вызвало ни малейшего ажиотажа среди фанатов. Вскоре Арси исчезла из сценария и была заменена на Айронхайда (Ironhide).
- В мультипликационном варианте Бамблби трансформировался из автомобиля Фольксваген Жук, однако в киноверсии Фольксваген заменили на Шевроле Камаро. Сделано это было по желанию Майкла Бэя, боявшегося сравнения персонажа с другим известным «автомобильным киножуком» - Херби. Фанаты оригинального сериала наверняка заметят желтый Фольксваген в сцене покупки Сэмом автомобиля.
- Майкл Бэй, которого пригласили режиссировать фильм, сначала счел будущую картину «глупой игрушечной историей», но вскоре передумал, после того, как вспомнил о своем первоначальном отношении к проекту «Индиана Джонс», ставшему в 1981 году настоящим хитом проката. В апреле 2005 года он был официально заявлен режиссером проекта, обогнав кандидата Роланда Эммериха.
- Первый комикс о трансформерах был выпущен в 1984 году компанией Marvel Comics. Первоначально планировалось всего четыре выпуска.
- Продюсер фильма Стивен Спилберг не заплатил ни одному актеру больше 70.000 долларов, пообещав высокие гонорары в последующих сиквелах.
- Над спецэффектами фильма работала команда из 80-ти человек.
- В картине Майкла Бэя Оптимус Прайм предстает в виде тягача Peterbilt 379. В ранней картине исполнительного продюсера «Трансформеров» Стивена Спилберга «Дуэль» (1971) главным действующим героем также был тягач Peterbilt 281.
- Звуки трансформации позаимствованы из одноименного мультсериала 1984 года.
- Согласно высказываниям Лоренцо ди Бонавентуры, все трансформации роботов были тщательно просчитаны математически. Таким образом, внимательные зрители могут понять, куда уходит каждая составная часть робота при обратной трансформации в транспортное средство.
- Мегатрону решили сделать лицо, мало напоминающее человеческое, чтобы придать данному персонажу еще более грозный вид.
- Пушка Айронхайда состоит из 10 тысяч деталей.
- В первой версии сценария фигурировал персонаж Рэведж (Ravage – уничтожение), роботоподное животное, сражающееся за Десептиконов. Позднее от Рэведжа избавились и включили в сценарий другое трансформирующееся существо - Скорпонока. Именно Скорпонок атакует выживших американских военных в одной из сцен первой половины картины.
- В первых вариантах сценария был прописан персонаж Юникорн, представляющий собой планету-трансформер. Ожидается, что этот персонаж получит право на кинематографическую жизнь в сиквеле.
- В фильме представлено 8 десептиконов и 5 автоботов. На сей шаг авторы сценария пошли намеренно, чтобы подчеркнуть работу автоботов в команде, а также показать, насколько опасна угроза завоевания нашей планеты десептиконами.
- Еще один момент, перекочевавший из сериала в фильм,- глаза трансформеров: cиние у автоботов, и красные у десептиконов.
- В комнате Сэма можно увидить плакат рок-группы Linkin Park, именно сингл этой группы What I've Donе является темой для фильма.
- Ровно на 60 минуте, парень бегущий с камерой к месту падения метеорита кричит «Я такой крутизны еще не видел, все вокруг взрывается, это точно в сто раз круче армагеддона». Фильм Армагеддон снял также Майкл Бэй.
- Во время синхронного разворота автоботов на шоссе, видно, что Оптимус начинает его первым и за ним встает Джаз. Однако потом Оптимус Прайм едет последним.
- По данному фильму была сделана одноименная игра.
- Для создания первой части «Трансформеров» пришлось задействовать 20 Тб дискового пространства серверов. Для работы над вторым фильмом едва хватило 145 Тб. Для сравнения, 145 Тб – это объем 35000 DVD-дисков.
- Изначально Майкл Бэй не хотел брать Шайю ЛаБафа на роль Сэма, так как считал, что актер слишком стар для этой роли.
- Десептикон Брол (Brawl) — модифицированный танк «M1 Abrams», первоначально был назван «Devastator», но позже Бэй признал ошибку и десептикона переименовали в Брола. Несмотря на это, в DVD-версии сохранился неисправленный субтитр «Devastator reporting».

скриншот  скриншот  скриншот  скриншот  

Общее
Уникальный идентификатор : 304870611855337513756264465400134966575 (0xE55BF1AD7EEA6CFB1900833D515D1D2F)
Полное имя : D:\Transformers.Pentalogy.2007-2017.UHD.HDR.Remux.TeamHD\Transformers.2007.UHD.2160p.mkv
Формат : Matroska
Версия формата : Version 4
Размер файла : 96,8 Гбайт
Продолжительность : 2 ч. 23 м.
Режим общего битрейта : Переменный
Общий поток : 96,6 Мбит/сек
Дата кодирования : UTC 2018-10-28 13:29:03
Программа кодирования : mkvmerge v28.2.0 ('The Awakening') 64-bit
Библиотека кодирования : libebml v1.3.6 + libmatroska v1.4.9

Видео
Идентификатор : 1
Формат : HEVC
Формат/Информация : High Efficiency Video Coding
Профиль формата : Main 10@L5.1@High
HDR_Format/String : SMPTE ST 2086, HDR10 compatible
Идентификатор кодека : V_MPEGH/ISO/HEVC
Продолжительность : 2 ч. 23 м.
Битрейт : 61,8 Мбит/сек
Ширина : 3840 пикселей
Высота : 2160 пикселей
Соотношение сторон : 16:9
Режим частоты кадров : Постоянный
Частота кадров : 23,976 (24000/1001) кадра/сек
Цветовое пространство : YUV
Субдискретизация насыщенности : 4:2:0 (Type 2)
Битовая глубина : 10 бит
Бит/(Пиксели*Кадры) : 0.311
Размер потока : 62,0 Гбайт (64%)
Язык : English
Default : Нет
Forced : Нет
Цветовой диапазон : Limited
Основные цвета : BT.2020
Характеристики трансфера : PQ
Коэффициенты матрицы : BT.2020 non-constant
MasteringDisplay_ColorPrimaries : Display P3
MasteringDisplay_Luminance : min: 0.0001 cd/m2, max: 1000 cd/m2

Аудио #1
Идентификатор : 2
Формат : DTS XLL
Формат/Информация : Digital Theater Systems
Коммерческое название : DTS-HD Master Audio
Идентификатор кодека : A_DTS
Продолжительность : 2 ч. 23 м.
Вид битрейта : Переменный
Битрейт : 4136 Кбит/сек
Каналы : 6 каналов
ChannelLayout : C L R Ls Rs LFE
Частота : 48,0 КГц
Частота кадров : 93,750 кадра/сек (512 SPF)
Битовая глубина : 24 бит
Метод сжатия : Без потерь
Размер потока : 4,14 Гбайт (4%)
Заголовок : дублированный
Язык : Russian
Default : Нет
Forced : Нет

Аудио #2
Идентификатор : 3
Формат : AC-3
Формат/Информация : Audio Coding 3
Коммерческое название : Dolby Digital
Идентификатор кодека : A_AC3
Продолжительность : 2 ч. 23 м.
Вид битрейта : Постоянный
Битрейт : 640 Кбит/сек
Каналы : 6 каналов
ChannelLayout : L R C LFE Ls Rs
Частота : 48,0 КГц
Частота кадров : 31,250 кадров/сек (1536 SPF)
Битовая глубина : 16 бит
Метод сжатия : С потерями
Размер потока : 657 Мбайт (1%)
Заголовок : дублированный
Язык : Russian
ServiceKind/String : Complete Main
Default : Нет
Forced : Нет

Аудио #3
Идентификатор : 4
Формат : AC-3
Формат/Информация : Audio Coding 3
Коммерческое название : Dolby Digital
Идентификатор кодека : A_AC3
Продолжительность : 2 ч. 23 м.
Вид битрейта : Постоянный
Битрейт : 448 Кбит/сек
Каналы : 6 каналов
ChannelLayout : L R C LFE Ls Rs
Частота : 48,0 КГц
Частота кадров : 31,250 кадров/сек (1536 SPF)
Битовая глубина : 16 бит
Метод сжатия : С потерями
Размер потока : 460 Мбайт (0%)
Заголовок : киномания
Язык : Russian
ServiceKind/String : Complete Main
Default : Нет
Forced : Нет

Аудио #4
Идентификатор : 5
Формат : AC-3
Формат/Информация : Audio Coding 3
Коммерческое название : Dolby Digital
Идентификатор кодека : A_AC3
Продолжительность : 2 ч. 23 м.
Вид битрейта : Постоянный
Битрейт : 192 Кбит/сек
Каналы : 2 канала
ChannelLayout : L R
Частота : 48,0 КГц
Частота кадров : 31,250 кадров/сек (1536 SPF)
Битовая глубина : 16 бит
Метод сжатия : С потерями
Размер потока : 197 Мбайт (0%)
Заголовок : супербит
Язык : Russian
ServiceKind/String : Complete Main
Default : Нет
Forced : Нет

Аудио #5
Идентификатор : 6
Формат : AC-3
Формат/Информация : Audio Coding 3
Коммерческое название : Dolby Digital
Идентификатор кодека : A_AC3
Продолжительность : 2 ч. 23 м.
Вид битрейта : Постоянный
Битрейт : 384 Кбит/сек
Каналы : 6 каналов
ChannelLayout : L R C LFE Ls Rs
Частота : 48,0 КГц
Частота кадров : 31,250 кадров/сек (1536 SPF)
Битовая глубина : 16 бит
Метод сжатия : С потерями
Размер потока : 394 Мбайт (0%)
Заголовок : дублированный
Язык : Ukrainian
ServiceKind/String : Complete Main
Default : Нет
Forced : Нет

Аудио #6
Идентификатор : 7
Формат : DTS XLL
Формат/Информация : Digital Theater Systems
Коммерческое название : DTS-HD Master Audio
Идентификатор кодека : A_DTS
Продолжительность : 2 ч. 23 м.
Вид битрейта : Переменный
Битрейт : 4842 Кбит/сек
Каналы : 8 каналов
ChannelLayout : C L R LFE Lb Rb Lss Rss
Частота : 48,0 КГц
Частота кадров : 93,750 кадра/сек (512 SPF)
Битовая глубина : 24 бит
Метод сжатия : Без потерь
Размер потока : 4,85 Гбайт (5%)
Заголовок : Андрей Гаврилов
Язык : Russian
Default : Нет
Forced : Нет

Аудио #7
Идентификатор : 8
Формат : DTS XLL
Формат/Информация : Digital Theater Systems
Коммерческое название : DTS-HD Master Audio
Идентификатор кодека : A_DTS
Продолжительность : 2 ч. 23 м.
Вид битрейта : Переменный
Битрейт : 4880 Кбит/сек
Каналы : 8 каналов
ChannelLayout : C L R LFE Lb Rb Lss Rss
Частота : 48,0 КГц
Частота кадров : 93,750 кадра/сек (512 SPF)
Битовая глубина : 24 бит
Метод сжатия : Без потерь
Размер потока : 4,89 Гбайт (5%)
Заголовок : Юрий Живов
Язык : Russian
Default : Нет
Forced : Нет

Аудио #8
Идентификатор : 9
Формат : DTS XLL
Формат/Информация : Digital Theater Systems
Коммерческое название : DTS-HD Master Audio
Идентификатор кодека : A_DTS
Продолжительность : 2 ч. 23 м.
Вид битрейта : Переменный
Битрейт : 4861 Кбит/сек
Каналы : 8 каналов
ChannelLayout : C L R LFE Lb Rb Lss Rss
Частота : 48,0 КГц
Частота кадров : 93,750 кадра/сек (512 SPF)
Битовая глубина : 24 бит
Метод сжатия : Без потерь
Размер потока : 4,87 Гбайт (5%)
Заголовок : Пётр Иващенко и Инна королёва
Язык : Russian
Default : Нет
Forced : Нет

Аудио #9
Идентификатор : 10
Формат : DTS XLL
Формат/Информация : Digital Theater Systems
Коммерческое название : DTS-HD Master Audio
Идентификатор кодека : A_DTS
Продолжительность : 2 ч. 23 м.
Вид битрейта : Переменный
Битрейт : 4869 Кбит/сек
Каналы : 8 каналов
ChannelLayout : C L R LFE Lb Rb Lss Rss
Частота : 48,0 КГц
Частота кадров : 93,750 кадра/сек (512 SPF)
Битовая глубина : 24 бит
Метод сжатия : Без потерь
Размер потока : 4,88 Гбайт (5%)
Заголовок : позитив-мультимедия
Язык : Russian
Default : Нет
Forced : Нет

Аудио #10
Идентификатор : 11
Формат : DTS XLL
Формат/Информация : Digital Theater Systems
Коммерческое название : DTS-HD Master Audio
Идентификатор кодека : A_DTS
Продолжительность : 2 ч. 23 м.
Вид битрейта : Переменный
Битрейт : 4392 Кбит/сек
Каналы : 8 каналов
ChannelLayout : C L R LFE Lb Rb Lss Rss
Частота : 48,0 КГц
Частота кадров : 93,750 кадра/сек (512 SPF)
Битовая глубина : 24 бит
Метод сжатия : Без потерь
Размер потока : 4,40 Гбайт (5%)
Язык : English
Default : Нет
Forced : Нет

Аудио #11
Идентификатор : 12
Формат : AC-3
Формат/Информация : Audio Coding 3
Коммерческое название : Dolby Digital
Идентификатор кодека : A_AC3
Продолжительность : 2 ч. 23 м.
Вид битрейта : Постоянный
Битрейт : 224 Кбит/сек
Каналы : 2 канала
ChannelLayout : L R
Частота : 48,0 КГц
Частота кадров : 31,250 кадров/сек (1536 SPF)
Битовая глубина : 16 бит
Метод сжатия : С потерями
Размер потока : 230 Мбайт (0%)
Заголовок : commentary by director Michael Bay
Язык : English
ServiceKind/String : Complete Main
Default : Нет
Forced : Нет

Аудио #12
Идентификатор : 13
Формат : MLP FBA 16-ch
Формат/Информация : Meridian Lossless Packing FBA with 16-channel presentation
Коммерческое название : Dolby TrueHD with Dolby Atmos
Идентификатор кодека : A_TRUEHD
Продолжительность : 2 ч. 23 м.
Вид битрейта : Переменный
Битрейт : 4077 Кбит/сек
Максимальный битрейт : 6768 Кбит/сек
Каналы : 8 каналов
ChannelLayout : L R C LFE Ls Rs Lb Rb
Частота : 48,0 КГц
Частота кадров : 1200,000 кадров/сек (40 SPF)
Метод сжатия : Без потерь
Размер потока : 4,09 Гбайт (4%)
Язык : English
Default : Нет
Forced : Нет
NumberOfDynamicObjects : 11
BedChannelCount/String : 1 канал
BedChannelConfiguration : LFE

Аудио #13
Идентификатор : 14
Формат : AC-3
Формат/Информация : Audio Coding 3
Коммерческое название : Dolby Digital
Идентификатор кодека : A_AC3
Продолжительность : 2 ч. 23 м.
Вид битрейта : Постоянный
Битрейт : 640 Кбит/сек
Каналы : 6 каналов
ChannelLayout : L R C LFE Ls Rs
Частота : 48,0 КГц
Частота кадров : 31,250 кадров/сек (1536 SPF)
Битовая глубина : 16 бит
Метод сжатия : С потерями
Размер потока : 657 Мбайт (1%)
Язык : English
ServiceKind/String : Complete Main
Default : Нет
Forced : Нет

Текст #1
Идентификатор : 15
Формат : PGS
Режим смешивания : zlib
Идентификатор кодека : S_HDMV/PGS
Идентификатор кодека/Информация : Picture based subtitle format used on BDs/HD-DVDs
Продолжительность : 2 ч. 16 м.
Битрейт : 578 бит/сек
ElementCount : 40
Размер потока : 577 Кбайт (0%)
Язык : Russian
Default : Нет
Forced : Нет

Текст #2
Идентификатор : 16
Формат : PGS
Режим смешивания : zlib
Идентификатор кодека : S_HDMV/PGS
Идентификатор кодека/Информация : Picture based subtitle format used on BDs/HD-DVDs
Продолжительность : 2 ч. 15 м.
Битрейт : 55,6 Кбит/сек
ElementCount : 3752
Размер потока : 53,7 Мбайт (0%)
Язык : Russian
Default : Нет
Forced : Нет

Текст #3
Идентификатор : 17
Формат : PGS
Режим смешивания : zlib
Идентификатор кодека : S_HDMV/PGS
Идентификатор кодека/Информация : Picture based subtitle format used on BDs/HD-DVDs
Продолжительность : 2 ч. 17 м.
Битрейт : 54,9 Кбит/сек
ElementCount : 3738
Размер потока : 54,0 Мбайт (0%)
Язык : Russian
Default : Нет
Forced : Нет

Текст #4
Идентификатор : 18
Формат : PGS
Режим смешивания : zlib
Идентификатор кодека : S_HDMV/PGS
Идентификатор кодека/Информация : Picture based subtitle format used on BDs/HD-DVDs
Продолжительность : 2 ч. 22 м.
Битрейт : 43,5 Кбит/сек
ElementCount : 3754
Размер потока : 44,3 Мбайт (0%)
Язык : Ukrainian
Default : Нет
Forced : Нет

Текст #5
Идентификатор : 19
Формат : PGS
Режим смешивания : zlib
Идентификатор кодека : S_HDMV/PGS
Идентификатор кодека/Информация : Picture based subtitle format used on BDs/HD-DVDs
Продолжительность : 2 ч. 14 м.
Битрейт : 959 бит/сек
ElementCount : 66
Размер потока : 946 Кбайт (0%)
Язык : Ukrainian
Default : Нет
Forced : Нет

Текст #6
Идентификатор : 20
Формат : PGS
Режим смешивания : zlib
Идентификатор кодека : S_HDMV/PGS
Идентификатор кодека/Информация : Picture based subtitle format used on BDs/HD-DVDs
Продолжительность : 2 ч. 21 м.
Битрейт : 47,6 Кбит/сек
ElementCount : 4062
Размер потока : 48,2 Мбайт (0%)
Язык : English
Default : Нет
Forced : Нет




Скачать Трансформеры через торрент https://a.radikal.ru/a22/1804/2b/cd4c23ed7e00.jpg Скачать, смотреть онлайн Трансформеры бесплантно в хорошем качестве Описание: В течение многих столетий две расы роботов-инопланетян — Автоботы и Десептиконы — вели войну, ставкой в которой была судьба ... 10 10 5
Торрент: Зарегистрирован [2019-08-09 21:04] · скачан: 32 раз
Статус: √ проверено
Размер: 96.78 GB
Как cкачать? Как скачать Трансформеры через торрент | UTorrent

28-11-2019 20:33  


Отключить вcю реклaмy на сайте, в т.ч. и в плеере онлайн просмотра!

    Дорогой пользователь! Огромная просьба, поблагодарите релизера, оцените раздачу и оставьте свои комментарий, если Вы скачали Трансформеры через торрент бесплатно!!
    Комментировать посты могут только пользователи прошедшие не сложную регистрацию
    Показать сообщения:    


    Трансформеры через торрент
    Скачать бесплатно Трансформеры
    Трансформеры скачать торрент
    Трансформеры смотреть онлайн
    Cкачать фильм Трансформеры бесплатно
    Трансформеры скачать торрент в хорошем качестве
    Трансформеры смотреть онлайн бесплатно в хорошем качестве
    Вы не можете начинать темы
    Вы не можете отвечать на сообщения
    Вы не можете редактировать свои сообщения
    Вы не можете удалять свои сообщения
    Вы не можете голосовать в опросах
    Вы не можете прикреплять файлы к сообщениям
    Вы можете скачивать файлы
    Трансформеры / Transformers [2007, Фантастика, боевик, UHD BDRemux 2160p] Дубляж [Лицензия] +2xMVO+2xDVO+2xAVO смотреть онлайн, скачать торрент picoco.icu