1 сезон

3 сезон

iTunes

1

iTunes

DUB Netflix

iTunes

13

1 сезон

RePack

30

Deluxe

pack

Легкие деньги

ВАЖНО

ИГРА 18+

pack

RePack

MK11

RePack

jed

RePack

fifa19

RePack

RDR2

RePack

NEED FOR SPEED™ PAYBACK

4 сезон

9 сезон

Бесстыжие 9 сезон

Все сериалы

все сериалы на PB.wtf

RePack

FAR CRY 5

Anonymous, добрый вечер, мы не успеваем до 1 числа собрать деньги на оплату серверов, помогите нам пожалуйста в это трудное время. В качестве благодарности мы отключим Вам всю рекламу на сайте (укажите свой ник в строку Ваше имя)!

×
  
Magnet ссылка

ЧОП / Сезон: 1-2 / Серии: 1-32 из 32 (Михаил Соловьев) [2015-2016, комедия, WEB-DLRip] piratbit.org

ЧОП через торрент piratbit.org

Размер: 10.95 GB | Добавлен: 1 год 10 мес. назад | Торрент скачан:62 раза
Скачать  

10-08-2019 12:09 ЧОП Скачать торрент  

ЧОП
Год выпуска: 2015-2016
Страна: Россия
Жанр: комедия
Продолжительность: ~ 00:25:00 серия
Субтитры: отсутствуют

Режиссер: Михаил Соловьев

rating

В ролях:

Сергей Степин (Лев Борисович), Олег Масленников-Войтов (Толя), Сергей Терещенко (Федя), Сэм Никель (Андрей), Денис Бузин (Слава), Яна Кошкина (Снежана), Дмитрий Белоцерковский (Виталик), Али Алиев, Ислам Мамергов, Виталий Гумеров, Александр Зарядин, Артур Казбеков
Описание: Сериал повествует о жизни бизнес-центра «Соловей», в котором трудится частное охранное предприятие «Кедр». Лев Борисович, начальник ЧОП, является, как он сам считает, не только охранником материальных, но и морально-нравственных ценностей. В его подчинении находятся четыре охранника — Федя, Толя, Слава и новичок Андрей. Андрей мечтает стать рок-звездой, поэтому работой охранника не дорожит, но в первый же рабочий день встречает Снежану, работницу спа-салона, и потихоньку втягивается в будни бизнес-центра.

Ограбление спермобанка, взрыв здания, разбитая «Феррари» — это не новый фильм с Джейсоном Стетхемом, а всего лишь история о паре дней из скромной жизни охранников бизнес-центра «Соловей».

Качество: WEB-DLRip
Формат: AVI

Видео: XviD, 1800 Кбит/с, 704x400
Аудио: MP3, 2 ch, 128 Кбит/с
скриншот  скриншот  скриншот  

скриншот  скриншот  скриншот  


Общее
Полное имя : D:\CHOP\Season 1\CHOP.e01.avi
Формат : AVI
Формат/Информация : Audio Video Interleave
Размер файла : 350 Мбайт
Продолжительность : 25 м. 17 с.
Общий поток : 1936 Кбит/сек
Программа кодирования : VirtualDubMod 1.5.10.3 | www.virtualdub-fr.org || (build 2550/release)
Библиотека кодирования : VirtualDubMod build 2550/release

Видео
Идентификатор : 0
Формат : MPEG-4 Visual
Профиль формата : Advanced Simple@L5
Параметр BVOP формата : 1
Параметр QPel формата : Нет
Параметр GMC формата : Без точки перехода
Параметр матрицы формата : Выборочная
Идентификатор кодека : XVID
Идентификатор кодека/Подсказка : XviD
Продолжительность : 25 м. 17 с.
Битрейт : 1798 Кбит/сек
Ширина : 704 пикселя
Высота : 400 пикселей
Соотношение сторон : 16:9
Частота кадров : 25,000 кадров/сек
Цветовое пространство : YUV
Субдискретизация насыщенности : 4:2:0
Битовая глубина : 8 бит
Тип развёртки : Прогрессивная
Метод сжатия : С потерями
Бит/(Пиксели*Кадры) : 0.255
Размер потока : 325 Мбайт (93%)
Библиотека кодирования : XviD 73

Аудио
Идентификатор : 1
Формат : MPEG Audio
Версия формата : Version 1
Профиль формата : Layer 3
Идентификатор кодека : 55
Идентификатор кодека/Подсказка : MP3
Продолжительность : 25 м. 17 с.
Вид битрейта : Постоянный
Битрейт : 128 Кбит/сек
Каналы : 2 канала
Частота : 48,0 КГц
Метод сжатия : С потерями
Размер потока : 23,2 Мбайт (7%)
Выравнивание : Соединение по промежуткам
Продолжительность промежутка : 40 мс. (1,00 видеокадр)
Время предзагрузки промежутка : 504 мс.
Библиотека кодирования : LAME3.99r
Настройки программы : -m s -V 4 -q 0 -lowpass 17 -b 128


piratbit.org



Скачать ЧОП через торрент http://img10.lostpic.net/2016/07/06/cf3530b16c2b2a9567afd55c2f587520.png Скачать фильм ЧОП через торрент бесплантно в хорошем качестве Описание: Сериал повествует о жизни бизнес-центра «Соловей», в котором трудится частное охранное предприятие «Кедр». Лев Борисович, ... 10 10 3
Торрент: Зарегистрирован [2019-08-10 12:09] · скачан: 62 раз
Статус: √ проверено
Размер: 10.95 GB
Как cкачать? Как скачать ЧОП через торрент | UTorrent

28-11-2019 20:33  

Отключить всю рекламу на сайте

    Дорогой пользователь! Огромная просьба, поблагодарите релизера, оцените раздачу и оставьте свои комментарий, если Вы скачали ЧОП через торрент бесплатно! Внесите свою лепту в развитие PiratBit!
    Комментировать посты могут только пользователи прошедшие не сложную регистрацию
    Показать сообщения:    

    ЧОП через торрент
    Скачать бесплатно ЧОП
    ЧОП скачать торрент
    ЧОП смотреть онлайн
    Cкачать фильм ЧОП бесплатно
    ЧОП скачать торрент в хорошем качестве
    ЧОП смотреть онлайн бесплатно в хорошем качестве


    Вы не можете начинать темы
    Вы не можете отвечать на сообщения
    Вы не можете редактировать свои сообщения
    Вы не можете удалять свои сообщения
    Вы не можете голосовать в опросах
    Вы не можете прикреплять файлы к сообщениям
    Вы можете скачивать файлы