Ссылка на приватное зеркало нашего сайта всего за 1$. Внимание количество ограничено!!!

2 сезон

iTunes

1 сезон

1

iTunes

iTunes

iTunes

1 сезон

RePack

30

ИГРА 18+

pack

ВАЖНО

!!Акция!!

Alien_RageХит недели

RePack

MK11
pack

Забери бонус

RePack

jed

!!Акция!!

Alien_Rage

RePack

fifa19

RePack

Assassins Creed: Odyssey

RePack

NEED FOR SPEED™ PAYBACK

4 сезон

9 сезон

Бесстыжие 9 сезон

Все сериалы

все сериалы на PB.wtf

RePack

FAR CRY 5
  

Невезучий папарацци / Ecco noi per esempio... (Серджио Корбуччи) [1977, Комедия, BDRip 720p, Авторский одноголосый Живаго] piratbit.org

Невезучий папарацци через торрент piratbit.org

Размер: 7.69 GB | Добавлен: 1 год 2 мес. назад | Торрент скачан:2 раза
Скачать  

11-08-2019 03:58 Невезучий папарацци Скачать торрент  

Невезучий папарацци / Ecco noi per esempio...
Год выпуска: 1977
Страна: Италия
Жанр: Комедия
Продолжительность: 01:55:43
Перевод: Авторский одноголосый Живаго

Режиссер: Серджио Корбуччи

Премьера в мире: 28 октября 1977

rating

В ролях: Адриано Челентано, Ренато Поццетто, Феличе Андреази, Барбара Бах, Джулиана Каландра, Антонио Касагранде

Описание: Клик - бульварный фотограф, за которым гоняются то бандиты, попавшие в объектив на месте преступления, то разъяренные женщины, также оказавшееся в поле зрения журналиста. Однажды во время столкновения с полицией Клик познакомился с начинающим писателем Гуанзироле Пальмамброджо, и два новоиспеченных приятеля пускаются в приключения... Кто такие ПАПАРАЦЦИ, и какими путями они добывают свой «хлеб насущный», мы знаем. А теперь представьте, что Челентано играет папарацци…

Качество: BDRip 720p
Формат: MKV
Видео кодек: MPEG4
Аудио кодек: AC3
Видео: MPEG-4 AVC, 9000 Кбит/с, 1280x690, 23.976 кадра/сек
Аудио#1: Русский (AC3, 2 ch, 256 Кбит/с, 48 КГц)
Аудио#2: Итальянский (AC3, 2 ch, 256 Кбит/с, 48 КГц)
Релиз от:
x264 [info]: profile High, level 4.1
x264 [info]: frame I:931 Avg QP:19.38 size:156048
x264 [info]: frame P:31642 Avg QP:22.07 size: 77126
x264 [info]: frame B:133894 Avg QP:23.30 size: 39011
-----
Общее
Уникальный идентификатор : 220543117145526741344818681480743811919 (0xA5EB0F3081C6F343B4A54463E56CFB4F)
Полное имя : F:\ExKinoRayRips\Paparazzi.1977.BDRip720p.ExKinoRay.mkv
Формат : Matroska
Версия формата : Version 2
Размер файла : 7,69 Гбайт
Продолжительность : 1 ч. 55 м.
Общий поток : 9512 Кбит/сек
Дата кодирования : UTC 2019-08-10 16:18:47
Программа кодирования : mkvmerge v7.8.0 ('River Man') 32bit built on Apr 3 2015 12:11:22
Библиотека кодирования : libebml v1.3.1 + libmatroska v1.4.2

Видео
Идентификатор : 1
Формат : AVC
Формат/Информация : Advanced Video Codec
Профиль формата : High@L4.1
Настройки формата : CABAC / 9 Ref Frames
Параметр CABAC формата : Да
Параметр RefFrames формата : 9 кадров
Идентификатор кодека : V_MPEG4/ISO/AVC
Продолжительность : 1 ч. 55 м.
Битрейт : 9000 Кбит/сек
Ширина : 1280 пикселей
Высота : 690 пикселей
Соотношение сторон : 1,85:1
Режим частоты кадров : Постоянный
Частота кадров : 23,976 (24000/1001) кадра/сек
Цветовое пространство : YUV
Субдискретизация насыщенности : 4:2:0
Битовая глубина : 8 бит
Тип развёртки : Прогрессивная
Бит/(Пиксели*Кадры) : 0.425
Размер потока : 7,12 Гбайт (93%)
Библиотека кодирования : x264 core 152 r2851 ba24899
Настройки программы : cabac=1 / ref=9 / deblock=1:-3:-2 / analyse=0x3:0x113 / me=umh / subme=10 / psy=1 / psy_rd=1.00:0.10 / mixed_ref=1 / me_range=32 / chroma_me=1 / trellis=2 / 8x8dct=1 / cqm=0 / deadzone=21,11 / fast_pskip=0 / chroma_qp_offset=-3 / threads=6 / lookahead_threads=1 / sliced_threads=0 / nr=0 / decimate=0 / interlaced=0 / bluray_compat=0 / constrained_intra=0 / bframes=12 / b_pyramid=2 / b_adapt=2 / b_bias=0 / direct=3 / weightb=1 / open_gop=0 / weightp=2 / keyint=240 / keyint_min=23 / scenecut=40 / intra_refresh=0 / rc=2pass / mbtree=0 / bitrate=9000 / ratetol=1.0 / qcomp=0.60 / qpmin=0 / qpmax=69 / qpstep=4 / cplxblur=20.0 / qblur=0.5 / ip_ratio=1.40 / pb_ratio=1.30 / aq=3:1.00
Язык : English
Default : Да
Forced : Нет
Цветовой диапазон : Limited
Основные цвета : BT.709
Характеристики трансфера : BT.709
Коэффициенты матрицы : BT.709

Аудио #1
Идентификатор : 2
Формат : AC-3
Формат/Информация : Audio Coding 3
Коммерческое название : Dolby Digital
Идентификатор кодека : A_AC3
Продолжительность : 1 ч. 55 м.
Вид битрейта : Постоянный
Битрейт : 256 Кбит/сек
Каналы : 2 канала
Channel layout : L R
Частота : 48,0 КГц
Частота кадров : 31,250 кадров/сек (1536 SPF)
Битовая глубина : 16 бит
Метод сжатия : С потерями
Размер потока : 212 Мбайт (3%)
Заголовок : Авторский (Живаго)
Язык : Russian
ServiceKind/String : Complete Main
Default : Да
Forced : Нет

Аудио #2
Идентификатор : 3
Формат : AC-3
Формат/Информация : Audio Coding 3
Коммерческое название : Dolby Digital
Идентификатор кодека : A_AC3
Продолжительность : 1 ч. 55 м.
Вид битрейта : Постоянный
Битрейт : 256 Кбит/сек
Каналы : 2 канала
Channel layout : L R
Частота : 48,0 КГц
Частота кадров : 31,250 кадров/сек (1536 SPF)
Битовая глубина : 16 бит
Метод сжатия : С потерями
Размер потока : 212 Мбайт (3%)
Язык : Italian
ServiceKind/String : Complete Main
Default : Нет
Forced : Нет

Меню
00:00:00.000 : :Chapter 01
00:06:20.588 : :Chapter 02
00:11:32.775 : :Chapter 03
00:17:10.988 : :Chapter 04
00:26:11.319 : :Chapter 05
00:32:18.561 : :Chapter 06
00:41:00.666 : :Chapter 07
00:54:32.268 : :Chapter 08
01:01:46.494 : :Chapter 09
01:13:36.912 : :Chapter 10
01:22:03.543 : :Chapter 11
01:27:18.107 : :Chapter 12
01:31:37.116 : :Chapter 13
01:36:57.728 : :Chapter 14
01:42:03.992 : :Chapter 15
01:52:53.892 : :Chapter 16
01:55:42.060 : :Chapter 17

piratbit.org



Скачать Невезучий папарацци через торрент http://s014.radikal.ru/i329/1701/d6/c9c57255c8c4.jpg Скачать фильм Невезучий папарацци через торрент бесплантно в хорошем качестве Описание: Клик - бульварный фотограф, за которым гоняются то бандиты, попавшие в объектив на месте преступления, то разъяренные женщины, ... 5 10 1
Info! Золотая раздача, скачанное не засчитывается.
Торрент: Зарегистрирован [2019-08-11 03:58] · скачан: 2 раз
Статус: √ проверено
Размер: 7.69 GB
Как cкачать? Как скачать Невезучий папарацци через торрент | qTorrent

28-11-2019 20:33  

Отключить всю рекламу на сайте

    Дорогой пользователь! Огромная просьба, поблагодарите релизера, оцените раздачу и оставьте свои комментарий, если Вы скачали Невезучий папарацци через торрент бесплатно! Внесите свою лепту в развитие PiratBit!
    Комментировать посты могут только пользователи прошедшие не сложную регистрацию
    Показать сообщения:    

    Невезучий папарацци через торрент
    Скачать бесплатно Невезучий папарацци
    Невезучий папарацци скачать торрент
    Невезучий папарацци смотреть онлайн
    Cкачать фильм Невезучий папарацци бесплатно
    Невезучий папарацци скачать торрент в хорошем качестве
    Невезучий папарацци смотреть онлайн бесплатно в хорошем качестве


    Вы не можете начинать темы
    Вы не можете отвечать на сообщения
    Вы не можете редактировать свои сообщения
    Вы не можете удалять свои сообщения
    Вы не можете голосовать в опросах
    Вы не можете прикреплять файлы к сообщениям
    Вы можете скачивать файлы