Доктор Стрэндж

Лицензия

Добыча

Дубляж

Уэнсдэй

1 сезон

Тор

Дубляж

В эфире

Дубляж

Там, где раки поют

MVO

Властелин колец

1 сезон

Deluxe

pack

Рекомендуем

30

Пиратка

ВАЖНО

ВАЖНО

Ghostwire

Пиратка

jed

RePack

nioh2

RePack

RDR2

RePack

NEED FOR SPEED™ PAYBACK

RePack

скачать торрент

Кинопоиск HD

Острые козырьки 6 сезон

6 сезон

FAR CRY 6

RePack

скачать торрент

Лицензия

скачать торрент

MVO

1

1 сезон

скачать торрент

1 сезон

скачать торрент

Лицензия

  

Курорт для ныряльщиков на Красном море / Operation Brothers / The Red Sea Diving Resort (Гидеон Рафф) [2019, Триллер, драма, история, WEB-DLRip] MVO [HDRezka]

Курорт для ныряльщиков на Красном море через торрент piratbit.org

Размер: 1.47 GB | Добавлен: 3 года 3 мес. назад | Торрент скачан:488 раз
Смотреть онлайн | Скачать   

12-08-2019 06:23 Курорт для ныряльщиков на Красном море Скачать торрент  

Курорт для ныряльщиков на Красном море / Operation Brothers / The Red Sea Diving Resort
Год выпуска: 2019
Страна: США
Жанр: Триллер, драма, история
Продолжительность: 02:10:10
Перевод: Профессиональный (многоголосый) | HDRezka
Субтитры: отсутствуют

Режиссер: Гидеон Рафф

rating
семпл

В ролях: Крис Эванс, Хейли Беннетт, Майкл Кеннет Уильямс, Михиль Хаусман, Бен Кингсли, Алона Тал, Алессандро Нивола, Грег Киннер, Крис Чок, Алекс Хэсселл, Марк Иванир, Дэнни Кеог, Патрик Листер, Ануар Х. Шмайне, Лоуренс Джофф, Вере Тиндале, Энтони Осейеми

Описание: История о миссии израильской разведывательной службы «Моссад», которая в 1980-х годах перевезла в Израиль несколько тысяч угнетённых евреев из Эфиопии. Молодой спецагент Ари Кидрона вместе со своей командой основывает тайный порт на побережье Красного моря. Наладив воздушные и морские мосты, он организует массовую переправку беженцев.

Качество: WEB-DLRip
Формат: AVI

Видео: 720x304 (2.35:1), 24.000 fps, XviD build 73 ~1 413 kbps avg
Аудио: 48.0 kHz, AC3 Dolby Digital, 2/0 (L,R) ch, ~192 kbps
скриншот  скриншот  скриншот  

General
Формат : AVI
Формат/Информация : Audio Video Interleave
Размер файла : 1,47 Гбайт
Продолжительность : 2 ч. 10 м.
Общий поток : 1614 Кбит/сек
Название фильма : Курорт для ныряльщиков на Красном море_2019_WEB-DLRip
Программа кодирования : VirtualDubMod 1.5.10.3 | (build 2550/release)
Авторское право : порошков

Видео
Идентификатор : 0
Формат : MPEG-4 Visual
Профиль формата : Advanced Simple@L5
Настройки формата : BVOP1 / Custom Matrix
Параметр BVOP формата : 1
Параметр QPel формата : Нет
Параметр GMC формата : Без точки перехода
Параметр матрицы формата : Выборочная
Идентификатор кодека : XVID
Идентификатор кодека/Подсказка : XviD
Продолжительность : 2 ч. 10 м.
Битрейт : 1413 Кбит/сек
Ширина : 720 пикселей
Высота : 304 пикселя
Соотношение сторон : 2,35:1
Частота кадров : 24,000 кадра/сек
Цветовое пространство : YUV
Субдискретизация насыщенности : 4:2:0
Битовая глубина : 8 бит
Тип развёртки : Прогрессивная
Метод сжатия : С потерями
Бит/(Пиксели*Кадры) : 0.269
Размер потока : 1,28 Гбайт (88%)
Библиотека кодирования : XviD 73

Аудио
Идентификатор : 1
Формат : AC-3
Формат/Информация : Audio Coding 3
Коммерческое название : Dolby Digital
Идентификатор кодека : 2000
Продолжительность : 2 ч. 10 м.
Вид битрейта : Постоянный
Битрейт : 192 Кбит/сек
Каналы : 2 канала
ChannelLayout : L R
Частота : 48,0 КГц
Частота кадров : 31,250 кадров/сек (1536 SPF)
Битовая глубина : 16 бит
Метод сжатия : С потерями
Размер потока : 179 Мбайт (12%)
Выравнивание : Разделение по промежуткам
Продолжительность промежутка : 42 мс. (1,00 видеокадр)
Время предзагрузки промежутка : 500 мс.




Скачать Курорт для ныряльщиков на Красном море через торрент http://d.radikal.ru/d31/1908/83/6d5351373d23.jpg Скачать, смотреть онлайн Курорт для ныряльщиков на Красном море бесплантно в хорошем качестве Описание: История о миссии израильской разведывательной службы «Моссад», которая в 1980-х годах перевезла в Израиль несколько тысяч ... 10 10 10
Торрент: Зарегистрирован [2019-08-12 06:23] · скачан: 488 раз
Статус: T временная
Размер: 1.47 GB
Как cкачать? Как скачать Курорт для ныряльщиков на Красном море через торрент | UTorrent

% Раздел Тема Автор DL S | L
T Фильмы (WEB-DL 720p, 1080p) [ 4.93 GB ] Курорт для ныряльщиков на Красном море / Operation Brothers / The Red Sea Diving Resort | HDRezka Studio | 1080p bober100 Скачать
1 | 0

28-11-2019 20:33  


Отключить вcю реклaмy на сайте, в т.ч. и в плеере онлайн просмотра!

12-08-2019 06:58 Курорт для ныряльщиков на Красном море Скачать торрент  

Хороший фильм в общем о праве за существование



    Дорогой пользователь! Огромная просьба, поблагодарите релизера, оцените раздачу и оставьте свои комментарий, если Вы скачали Курорт для ныряльщиков на Красном море через торрент бесплатно!!
    Комментировать посты могут только пользователи прошедшие не сложную регистрацию
    Показать сообщения:    


    Курорт для ныряльщиков на Красном море через торрент
    Скачать бесплатно Курорт для ныряльщиков на Красном море
    Курорт для ныряльщиков на Красном море скачать торрент
    Курорт для ныряльщиков на Красном море смотреть онлайн
    Cкачать фильм Курорт для ныряльщиков на Красном море бесплатно
    Курорт для ныряльщиков на Красном море скачать торрент в хорошем качестве
    Курорт для ныряльщиков на Красном море смотреть онлайн бесплатно в хорошем качестве
    Вы не можете начинать темы
    Вы не можете отвечать на сообщения
    Вы не можете редактировать свои сообщения
    Вы не можете удалять свои сообщения
    Вы не можете голосовать в опросах
    Вы не можете прикреплять файлы к сообщениям
    Вы можете скачивать файлы
    Курорт для ныряльщиков на Красном море / Operation Brothers / The Red Sea Diving Resort [2019, Триллер, драма, история, WEB-DLRip] MVO [HDRezka] смотреть онлайн, скачать торрент picoco.icu