Ссылка на приватное зеркало нашего сайта всего за 1$. Внимание количество ограничено!!!

2 сезон

iTunes

1 сезон

1

iTunes

iTunes

iTunes

1 сезон

RePack

30

ИГРА 18+

pack

ВАЖНО

!!Акция!!

Alien_RageХит недели

RePack

MK11
pack

Забери бонус

RePack

jed

!!Акция!!

Alien_Rage

RePack

fifa19

RePack

Assassins Creed: Odyssey

RePack

NEED FOR SPEED™ PAYBACK

4 сезон

9 сезон

Бесстыжие 9 сезон

Все сериалы

все сериалы на PB.wtf

RePack

FAR CRY 5
  

Лето с Моникой / Sommaren med Monika (Ингмар Бергман) [1953, драма, мелодрама, BDRip 720p by msltel] MVO piratbit.org

Лето с Моникой через торрент piratbit.org

Размер: 4.11 GB | Добавлен: 1 год 2 мес. назад | Торрент скачан:4 раза
Скачать  

12-08-2019 06:55 Лето с Моникой Скачать торрент  

Название: Лето с Моникой
Оригинальное название: Sommaren med Monika
Год выпуска: 1953
Страна: Швеция
Жанр: драма, мелодрама
Продолжительность: 01:38:00
Перевод: профессиональный многоголосый

Режиссер: Ингмар Бергман
В ролях: Харриет Андерссон, Ларс Экборг, Дагмар Эббесен, Эке Фриделль, Наэми Брисе, Оке Грёнберг, Сигге Фюрст, Джон Хэррисон, Харри Алин

О фильме: Молодые Моника и Харри бегут из унылого Стокгольма на остров Орнё. В этом райском уголке они проводят самое счастливое лето, занимаются любовью и мечтают о семейном счастье. Но приходит осень, и героям приходится вернуться в город, к той самой реальности, от которой они столь страстно мечтали освободиться... Фильм по роману П. А. Фогельстрёма.



Качество: BDRip 720p
Формат: MKV
Видео: MPEG-4 AVC, 5681 Кбит/с, 988x720, 23.976 кадр/с
Аудио 1: русский, AC3, 128 kbps, 1 ch, 48 kHz [закадровый многоголосый]
Аудио 2: английский, AC3, 192 kbps, 1 ch, 48 kHz [оригинал]
Субтитры 1: русские
Субтитры 2: английские
Общее
Уникальный идентификатор : 172457596563344464083926885562823889241 (0x81BE1FFBCB9231B7AFE4D69E86FA5159)
Полное имя : D:\Video\Лето с Моникой.1953.BDRip 720p by msltel.mkv
Формат : Matroska
Версия формата : Version 4
Размер файла : 4,11 Гбайт
Продолжительность : 1 ч. 38 м.
Общий поток : 6003 Кбит/сек
Название фильма : Rip by msltel
Дата кодирования : UTC 2019-08-12 05:52:02
Программа кодирования : mkvmerge v8.2.0 ('World of Adventure') 64bit
Библиотека кодирования : libebml v1.3.1 + libmatroska v1.4.2

Видео
Идентификатор : 1
Формат : AVC
Формат/Информация : Advanced Video Codec
Профиль формата : High@L4.1
Настройки формата : CABAC / 4 Ref Frames
Параметр CABAC формата : Да
Параметр RefFrames формата : 4 кадра
Идентификатор кодека : V_MPEG4/ISO/AVC
Продолжительность : 1 ч. 38 м.
Битрейт : 5681 Кбит/сек
Ширина : 988 пикселей
Высота : 720 пикселей
Соотношение сторон : 1,372
Режим частоты кадров : Постоянный
Частота кадров : 23,976 (24000/1001) кадра/сек
Цветовое пространство : YUV
Субдискретизация насыщенности : 4:2:0
Битовая глубина : 8 бит
Тип развёртки : Прогрессивная
Бит/(Пиксели*Кадры) : 0.333
Размер потока : 3,89 Гбайт (95%)
Библиотека кодирования : x264 core 157 r2935 545de2f
Настройки программы : cabac=1 / ref=4 / deblock=1:-2:-2 / analyse=0x3:0x113 / me=umh / subme=11 / psy=1 / psy_rd=1.00:0.15 / mixed_ref=1 / me_range=32 / chroma_me=1 / trellis=2 / 8x8dct=1 / cqm=0 / deadzone=21,11 / fast_pskip=0 / chroma_qp_offset=-3 / threads=6 / lookahead_threads=1 / sliced_threads=0 / nr=0 / decimate=1 / interlaced=0 / bluray_compat=0 / constrained_intra=0 / bframes=7 / b_pyramid=2 / b_adapt=2 / b_bias=0 / direct=1 / weightb=1 / open_gop=0 / weightp=2 / keyint=230 / keyint_min=23 / scenecut=40 / intra_refresh=0 / rc_lookahead=40 / rc=crf / mbtree=1 / crf=20.3 / qcomp=0.60 / qpmin=0 / qpmax=69 / qpstep=4 / vbv_maxrate=50000 / vbv_bufsize=62500 / crf_max=0.0 / nal_hrd=none / filler=0 / ip_ratio=1.40 / aq=1:1.00
Язык : Swedish
Default : Да
Forced : Нет

Аудио #1
Идентификатор : 2
Формат : AC-3
Формат/Информация : Audio Coding 3
Коммерческое название : Dolby Digital
Идентификатор кодека : A_AC3
Продолжительность : 1 ч. 38 м.
Вид битрейта : Постоянный
Битрейт : 128 Кбит/сек
Каналы : 1 канал
ChannelLayout : C
Частота : 48,0 КГц
Частота кадров : 31,250 кадров/сек (1536 SPF)
Битовая глубина : 16 бит
Метод сжатия : С потерями
Размер потока : 89,7 Мбайт (2%)
Заголовок : MVO
Язык : Russian
ServiceKind/String : Complete Main
Default : Да
Forced : Нет

Аудио #2
Идентификатор : 3
Формат : AC-3
Формат/Информация : Audio Coding 3
Коммерческое название : Dolby Digital
Идентификатор кодека : A_AC3
Продолжительность : 1 ч. 38 м.
Вид битрейта : Постоянный
Битрейт : 192 Кбит/сек
Каналы : 1 канал
ChannelLayout : C
Частота : 48,0 КГц
Частота кадров : 31,250 кадров/сек (1536 SPF)
Битовая глубина : 16 бит
Метод сжатия : С потерями
Размер потока : 135 Мбайт (3%)
Заголовок : original
Язык : Swedish
ServiceKind/String : Complete Main
Default : Нет
Forced : Нет

Текст #1
Идентификатор : 4
Формат : UTF-8
Идентификатор кодека : S_TEXT/UTF8
Идентификатор кодека/Информация : UTF-8 Plain Text
Продолжительность : 1 ч. 32 м.
Битрейт : 50 бит/сек
ElementCount : 673
Размер потока : 34,6 Кбайт (0%)
Заголовок : русские
Язык : Russian
Default : Нет
Forced : Нет

Текст #2
Идентификатор : 5
Формат : UTF-8
Идентификатор кодека : S_TEXT/UTF8
Идентификатор кодека/Информация : UTF-8 Plain Text
Продолжительность : 1 ч. 32 м.
Битрейт : 29 бит/сек
ElementCount : 620
Размер потока : 19,7 Кбайт (0%)
Заголовок : английские
Язык : English
Default : Нет
Forced : Нет
piratbit.org



Скачать Лето с Моникой через торрент https://c.radikal.ru/c15/1908/0b/43106bacb9db.jpg Скачать фильм Лето с Моникой через торрент бесплантно в хорошем качестве О фильме: Молодые Моника и Харри бегут из унылого Стокгольма на остров Орнё. В этом райском уголке они проводят самое счастливое лето, ... 5 10 1
Info! Золотая раздача, скачанное не засчитывается.
Торрент: Зарегистрирован [2019-08-12 06:55] · скачан: 4 раз
Статус: √ проверено
Размер: 4.11 GB
Как cкачать? Как скачать Лето с Моникой через торрент | qTorrent

% Раздел Тема Автор DL S | L
Классика зарубежного кино [ 10.94 GB ] Лето с Моникой / Sommaren med Monika [1953 BDRip 1080p by msltel] MVO msltel Скачать
1 | 0

28-11-2019 20:33  

Отключить всю рекламу на сайте

    Дорогой пользователь! Огромная просьба, поблагодарите релизера, оцените раздачу и оставьте свои комментарий, если Вы скачали Лето с Моникой через торрент бесплатно! Внесите свою лепту в развитие PiratBit!
    Комментировать посты могут только пользователи прошедшие не сложную регистрацию
    Показать сообщения:    

    Лето с Моникой через торрент
    Скачать бесплатно Лето с Моникой
    Лето с Моникой скачать торрент
    Лето с Моникой смотреть онлайн
    Cкачать фильм Лето с Моникой бесплатно
    Лето с Моникой скачать торрент в хорошем качестве
    Лето с Моникой смотреть онлайн бесплатно в хорошем качестве


    Вы не можете начинать темы
    Вы не можете отвечать на сообщения
    Вы не можете редактировать свои сообщения
    Вы не можете удалять свои сообщения
    Вы не можете голосовать в опросах
    Вы не можете прикреплять файлы к сообщениям
    Вы можете скачивать файлы