MEGA NEWS Получи личный уникальный адрес сайта и защити себя от блокировок. Внимание количество ограничено!!!

iTunes

1+1

iTunes

мы

iTunes

1

iTunes

Чернобыль

iTunes

Ральф против интернета

Лицензия

ПШазам

Лицензия

Игра престолов

Лицензия

30
pack

ВАЖНО

!!Акция!!

Alien_RageХит недели

RePack

Resident Evil 21

ИГРА 18+

pack

RePack

Metro:Exodus

!!Акция!!

Alien_Rage

RePack

fifa19

RePack

Assassins Creed: Odyssey

RePack

NEED FOR SPEED™ PAYBACK

3 сезон

9 сезон

Бесстыжие 9 сезон

Все сериалы

все сериалы на PB.wtf

RePack

FAR CRY 5
Ребята, катастрофически не хватает 1900р. для оплаты серверов за АВГУСТ (всвязи с блокировками трафик упал в 3 раза), 1-2р., выручайте.
  

Террор / The Terror / Сезон: 2 / Серии: 1-10 из 10 (Эдвард Бергер) [2019, ужасы, драма, триллер, WEBRip] MVO [Profix Media] piratbit.org

Террор через торрент piratbit.org

Раздают: 6 [ 535 KB/s ] Качают: 1 [ 0 KB/s ]
Размер: 5.06 GB | Добавлен: 4 ч. назад | Торрент скачан:4 раза
Скачать  

14-08-2019 17:59 Террор Скачать торрент  

Террор / The Terror
Год выпуска: 2019
Страна: США
Жанр: Ужасы, триллер, драма, история, фэнтези
Продолжительность: ~ 00:52:00
Перевод: Профессиональный (многоголосый) | Profix Media
Субтитры: отсутствуют

Режиссер: Тим Милантс, Эдвард Бергер, Серджо Мимика-Геззан

rating

В ролях: Джаред Харрис, Тобайас Мензис, Пол Рэди, Адам Нагаитис, Иэн Харт, Нив Нилсен, Киаран Хайндс, Кристос Лоутон, Дерек Мио, Синго Усами и другие.

Описание: Второй сезон. В 1942 году в разгар Второй мировой войны президент США санкционировал интернирование, в результате чего около 120 тысяч японцев, живших в Америке, были насильственно выселены с Тихоокеанского побережья и помещены в специальные лагеря. Вместе с интернированными там оказалось нечто древнее и зловещее.

Качество: WEBRip
Формат: MP4

Видео: AVC, ~ 1500 Кбит/с, 720х406
Аудио: Русский (AAC, 2 ch, 128 Кбит/с)
скриншот  скриншот  скриншот  скриншот  

Общее
Полное имя : C:\The.Terror.S02.WEBRip.Profix.Media\The.Terror.S02E01.WEBRip.Profix.Media.mp4
Формат : MPEG-4
Профиль формата : Base Media
Идентификатор кодека : isom (isom/iso2/avc1/mp41)
Размер файла : 617 Мбайт
Продолжительность : 52 м. 48 с.
Общий поток : 1633 Кбит/сек
Тип содержимого : Short Film
Программа кодирования : Lavf57.82.101
HDVideo : Yes

Видео
Идентификатор : 1
Формат : AVC
Формат/Информация : Advanced Video Codec
Профиль формата : High@L3
Настройки формата : CABAC / 4 Ref Frames
Параметр CABAC формата : Да
Параметр RefFrames формата : 4 кадра
Идентификатор кодека : avc1
Идентификатор кодека/Информация : Advanced Video Coding
Продолжительность : 52 м. 48 с.
Битрейт : 1500 Кбит/сек
Ширина : 720 пикселей
Высота : 406 пикселей
Соотношение сторон : 16:9
Режим частоты кадров : Постоянный
Частота кадров : 23,976 (24000/1001) кадра/сек
Цветовое пространство : YUV
Субдискретизация насыщенности : 4:2:0
Битовая глубина : 8 бит
Тип развёртки : Прогрессивная
Бит/(Пиксели*Кадры) : 0.214
Размер потока : 566 Мбайт (92%)
Заголовок : Video Track
Библиотека кодирования : x264 core 157 r2958 57baac4
Настройки программы : cabac=1 / ref=3 / deblock=1:0:0 / analyse=0x3:0x133 / me=hex / subme=7 / psy=1 / psy_rd=1.00:0.20 / mixed_ref=1 / me_range=16 / chroma_me=1 / trellis=1 / 8x8dct=1 / cqm=0 / deadzone=21,11 / fast_pskip=1 / chroma_qp_offset=-3 / threads=29 / lookahead_threads=3 / sliced_threads=0 / nr=0 / decimate=1 / interlaced=0 / bluray_compat=0 / constrained_intra=0 / bframes=3 / b_pyramid=2 / b_adapt=2 / b_bias=0 / direct=3 / weightb=1 / open_gop=0 / weightp=2 / keyint=240 / keyint_min=24 / scenecut=40 / intra_refresh=0 / rc_lookahead=40 / rc=abr / mbtree=1 / bitrate=1500 / ratetol=1.0 / qcomp=0.60 / qpmin=0 / qpmax=69 / qpstep=4 / ip_ratio=1.40 / aq=1:1.00
Цветовой диапазон : Limited
Основные цвета : BT.709
Характеристики трансфера : BT.709
Коэффициенты матрицы : BT.709
Codec configuration box : avcC

Аудио
Идентификатор : 2
Формат : AAC LC
Формат/Информация : Advanced Audio Codec Low Complexity
Идентификатор кодека : mp4a-40-2
Продолжительность : 52 м. 48 с.
Вид битрейта : Постоянный
Битрейт : 128 Кбит/сек
Каналы : 2 канала
ChannelLayout : L R
Частота : 48,0 КГц
Частота кадров : 46,875 кадров/сек (1024 SPF)
Метод сжатия : С потерями
Размер потока : 48,3 Мбайт (8%)
Заголовок : Audio Track
Язык : Russian
Default : Да
AlternateGroup/String : 1

Когда раздача ведётся путём добавления новых серий, при каждом добавлении создётся новый торрент. Чтобы начать докачку новой серии, пользователям необходимо сделать следующее:
(1) остановить скачивание,
(2) удалить старый торрент у себя из клиента (старые серии удалять не надо),
(3) скачать новый торрент и запустить его у себя в клиенте вместо старого, при этом указать клиенту путь в старую папку, куда и должно происходить скачивание новых серий.
Ваш клиент при этом должен произвести хеширование (проверку) старой папки (если не производит сам - помогите ему сделать это), и будет докачивать только те серии, которых у вас ещё нет. Старые серии при этом не удаляются, а продолжают раздаваться!
Eсли вы уже удалили старые серии, то предотвратить повторную закачку старых серий можно, отжав галочку в соответсвующих местах при запуске нового торрента. По возможности, желательно не удалять старые серии как можно дольше, чтобы релизёр не столько продолжал раздавать старые серии, а смог сконцентрироваться на новых.
piratbit.org



Скачать Террор через торрент https://d.radikal.ru/d16/1908/42/9427630d9848.jpg Скачать фильм Террор через торрент бесплантно в хорошем качестве Описание: Второй сезон. В 1942 году в разгар Второй мировой войны президент США санкционировал интернирование, в результате чего около 120 ... 10 10 3
Торрент: Зарегистрирован [2019-10-17 12:28] · скачан: 4 раз
Статус: √ проверено
Размер: 5.06 GB
Как cкачать? Как скачать Террор через торрент | qTorrent

% Раздел Тема Автор DL S | L
Зарубежные сериалы [ 28.24 GB ] Террор / The Terror / Сезон: 2 / Серии: 1-10 из 10 [2019 WEB-DL 1080p] MVO [AMS] bober100 Скачать
1 | 0
Зарубежные сериалы [ 8.75 GB ] Террор / The Terror / Сезон: 2 / Серии: 1-10 из 10 [2019 WEB-DLRip] [MVO] killermax2013 Скачать
3 | 2
Зарубежные сериалы [ 4.87 GB ] Террор / The Terror / Сезон: 2 / Серии: 1-3 из 10 [2019 WEBRip 720p] [DVO] killermax2013 Скачать
1 | 0
Зарубежные сериалы [ 4.45 GB ] Террор / The Terror / Сезон: 2 / Серии: 1-6 из 10 [2019 WEB-DLRip] MVO [TVShows] bober100 Скачать
1 | 1
Зарубежные сериалы [ 10.64 GB ] Террор / The Terror / Сезон: 2 / Серии: 1-7 из 10 [2019 WEB-DL 720p] MVO [LostFilm] bober100 Скачать
1 | 0
Зарубежные сериалы [ 12.85 GB ] Террор / The Terror / Сезон: 2 / Серии: 1-9 из 10 [2019 WEB-DL 720p] [MVO] killermax2013 Скачать
2 | 0
Зарубежные сериалы [ 8.51 GB ] Террор / The Terror / Сезон: 2 / Серии: 1-6 из 10 [2019 WEB-DL 720p] MVO [AlexFilm] bober100 Скачать
1 | 0


>> Регистрируемся здесь <<






Отзывы и комментарии о схеме читаем и пишем здесь: ---> Отзывы и комментарии о схеме

Новые благодарочки в телеграм довольных пользователей:
скриншот   скриншот   скриншот   скриншот   скриншот
    Дорогой пользователь! Огромная просьба, поблагодарите релизера, оцените раздачу и оставьте свои комментарий, если Вы скачали Террор через торрент бесплатно! Внесите свою лепту в развитие PiratBit!
    Комментировать посты могут только пользователи прошедшие не сложную регистрацию
    Показать сообщения:    

    Террор через торрент
    Скачать бесплатно Террор
    Террор скачать торрент
    Террор смотреть онлайн
    Cкачать фильм Террор бесплатно
    Террор скачать торрент в хорошем качестве
    Террор смотреть онлайн бесплатно в хорошем качестве


    Вы не можете начинать темы
    Вы не можете отвечать на сообщения
    Вы не можете редактировать свои сообщения
    Вы не можете удалять свои сообщения
    Вы не можете голосовать в опросах
    Вы не можете прикреплять файлы к сообщениям
    Вы можете скачивать файлы