1 сезон

3 сезон

iTunes

1

iTunes

DUB Netflix

iTunes

13

1 сезон

RePack

30

Deluxe

pack

Легкие деньги

ВАЖНО

ИГРА 18+

pack

RePack

MK11

RePack

jed

RePack

fifa19

RePack

RDR2

RePack

NEED FOR SPEED™ PAYBACK

4 сезон

9 сезон

Бесстыжие 9 сезон

Все сериалы

все сериалы на PB.wtf

RePack

FAR CRY 5

Anonymous, доброй ночи, мы не успеваем до 1 числа собрать деньги на оплату серверов, помогите нам пожалуйста в это трудное время. В качестве благодарности мы отключим Вам всю рекламу на сайте (укажите свой ник в строку Ваше имя)!

×
  
Magnet ссылка

Горизонт / Сезон: 1 / Серии: 1- из 8 (Олег Трофим) [2019, Фантастика, WEB-DLRip] piratbit.org

Горизонт через торрент piratbit.org

Размер: 600 MB | Добавлен: 1 год 10 мес. назад | Торрент скачан:24 раза
Скачать  

15-08-2019 04:39 Горизонт Скачать торрент  

Горизонт
Год выпуска: 2019
Страна: Россия
Жанр: Фантастика
Продолжительность: ~ 00:49:26
Перевод: Не требуется
Субтитры: отсутствуют

Режиссер: Олег Трофим

скриншот  

В ролях: Алексей Кравченко, Илья Маланин, Ирина Старшенбаум, Федор Воронцов, Филипп Авдеев, Вань Шень, Илья Кипоренко, Марина Кондратьева, Кристина Кучеренко, Алла Малкова, Юрий Климов, Валентин Самохин, Валерий Скляров, Иван Макаревич, Олег Дуленин

Описание: На города обрушивается эпидемия неизвестного вируса, который за считанные минуты распространяется и заражает любого человека. Небольшой группе людей все же удается выжить, укрывшись вместе с военнослужащими под командованием полковника ГРУ в специальном бункере, где на протяжении трех лет ученые и военные пытаются создать вакцину от вируса.

Качество: WEB-DLRip
Формат: AVI

Видео: 720x304 (2.37:1), 25 fps, XviD ~1500 kbps avg, 0.273 bit/pixel
Аудио: 48 kHz, AC3 Dolby Digital, 2/0 (L,R) ch, ~192 kbps
скриншот  скриншот  скриншот  скриншот  скриншот  

General
Complete name : D:\Gorizont.2019.WEB-DLRip.25Kuzmich\Gorizont.e01.WEB-DLRip.25Kuzmich.avi
Format : AVI
Format/Info : Audio Video Interleave
File size : 600 MiB
Duration : 49 min 26 s
Overall bit rate : 1 697 kb/s
Writing application : VirtualDubMod 1.5.10.3 | www.virtualdub-fr.org || (build 2550/release)
Writing library : VirtualDubMod build 2550/release

Video
ID : 0
Format : MPEG-4 Visual
Format profile : Advanced Simple@L5
Format settings : BVOP1
Format settings, BVOP : 1
Format settings, QPel : No
Format settings, GMC : No warppoints
Format settings, Matrix : Default (MPEG)
Codec ID : XVID
Codec ID/Hint : XviD
Duration : 49 min 26 s
Bit rate : 1 495 kb/s
Width : 720 pixels
Height : 304 pixels
Display aspect ratio : 2.35:1
Frame rate : 25.000 FPS
Color space : YUV
Chroma subsampling : 4:2:0
Bit depth : 8 bits
Scan type : Progressive
Compression mode : Lossy
Bits/(Pixel*Frame) : 0.273
Stream size : 529 MiB (88%)
Writing library : XviD 73

Audio
ID : 1
Format : AC-3
Format/Info : Audio Coding 3
Codec ID : 2000
Duration : 49 min 26 s
Bit rate mode : Constant
Bit rate : 192 kb/s
Channel(s) : 2 channels
Channel positions : Front: L R
Sampling rate : 48.0 kHz
Frame rate : 31.250 FPS (1536 SPF)
Bit depth : 16 bits
Compression mode : Lossy
Stream size : 67.9 MiB (11%)
Alignment : Split accross interleaves
Interleave, duration : 40 ms (1.00 video frame)
Interleave, preload duratio : 500 ms
Service kind : Complete Main

Внимание! Раздача ведётся путём добавления новых серий; при каждом добавлении создаётся новый торрент. Чтобы начать докачку новой серии, пользователям необходимо сделать следующее:
(1) остановить скачивание,
(2) удалить старый торрент у себя из клиента (старые серии удалять не надо),
(3) скачать новый торрент и запустить его у себя в клиенте вместо старого, при этом указать клиенту путь в старую папку куда и должно происходить скачивание новых серий.

Ваш клиент при этом должен произвести хеширование (проверку) старой папки (если не производит сам - помогите ему сделать это), и будет докачивать только те серии которых у вас ещё нет. Старые серии при этом не удаляются, а продолжают раздаваться!

Eсли вы уже удалили старые серии, то предотвратить повторную закачку старых серий можно, отжав галочку в соответствующих местах при запуске нового торрента. По возможности, желательно не удалять старые серии как можно дольше чтобы релизёр не столько продолжал раздавать старые серии, а смог сконцентрироваться на новых.
piratbit.org



Скачать Горизонт через торрент https://i106.fastpic.ru/big/2019/0815/1f/8b1ce0fd3da8669e0f10ce7afad5821f.jpg Скачать фильм Горизонт через торрент бесплантно в хорошем качестве Описание: На города обрушивается эпидемия неизвестного вируса, который за считанные минуты распространяется и заражает любого человека. ... 9.3 10 3
Торрент: Зарегистрирован [2019-08-15 04:39] · скачан: 24 раз
Статус: √ проверено
Размер: 600 MB
Как cкачать? Как скачать Горизонт через торрент | UTorrent

% Раздел Тема Автор DL S | L
TNT serials [ 634 MB ] Горизонт / Сезон: 1 / Серии: 1- из 8 [2019 WEBRip-AVC] bober100 Скачать
1 | 0
TNT serials [ 1.76 GB ] Горизонт / Сезон: 1 / Серии: 1- из 8 [2019 WEB-DL 1080p] bober100 Скачать
1 | 0

28-11-2019 20:33  

Отключить всю рекламу на сайте

    Дорогой пользователь! Огромная просьба, поблагодарите релизера, оцените раздачу и оставьте свои комментарий, если Вы скачали Горизонт через торрент бесплатно! Внесите свою лепту в развитие PiratBit!
    Комментировать посты могут только пользователи прошедшие не сложную регистрацию
    Показать сообщения:    

    Горизонт через торрент
    Скачать бесплатно Горизонт
    Горизонт скачать торрент
    Горизонт смотреть онлайн
    Cкачать фильм Горизонт бесплатно
    Горизонт скачать торрент в хорошем качестве
    Горизонт смотреть онлайн бесплатно в хорошем качестве


    Вы не можете начинать темы
    Вы не можете отвечать на сообщения
    Вы не можете редактировать свои сообщения
    Вы не можете удалять свои сообщения
    Вы не можете голосовать в опросах
    Вы не можете прикреплять файлы к сообщениям
    Вы можете скачивать файлы