1 сезон

3 сезон

iTunes

1

iTunes

DUB Netflix

iTunes

13

1 сезон

RePack

30

Deluxe

pack

Легкие деньги

ВАЖНО

ИГРА 18+

pack

RePack

MK11

RePack

jed

RePack

fifa19

RePack

RDR2

RePack

NEED FOR SPEED™ PAYBACK

4 сезон

9 сезон

Бесстыжие 9 сезон

Все сериалы

все сериалы на PB.wtf

RePack

FAR CRY 5

Anonymous, доброй ночи, мы не успеваем до 1 числа собрать деньги на оплату серверов, помогите нам пожалуйста в это трудное время. В качестве благодарности мы отключим Вам всю рекламу на сайте (укажите свой ник в строку Ваше имя)!

×
  
Magnet ссылка

Горизонт / Сезон: 1 / Серии: 1- из 8 (Олег Трофим) [2019, Фантастика, WEB-DL 1080p] piratbit.org

Горизонт через торрент piratbit.org

Раздают: 1 [ 0 KB/s ]
Размер: 1.76 GB | Добавлен: 1 год 10 мес. назад | Торрент скачан:144 раза
Скачать  

15-08-2019 04:39 Горизонт Скачать торрент  

Горизонт
Год выпуска: 2019
Страна: Россия
Жанр: Фантастика
Продолжительность: ~ 00:49:26
Перевод: Не требуется
Субтитры: отсутствуют

Режиссер: Олег Трофим

скриншот  

В ролях: Алексей Кравченко, Илья Маланин, Ирина Старшенбаум, Федор Воронцов, Филипп Авдеев, Вань Шень, Илья Кипоренко, Марина Кондратьева, Кристина Кучеренко, Алла Малкова, Юрий Климов, Валентин Самохин, Валерий Скляров, Иван Макаревич, Олег Дуленин

Описание: На города обрушивается эпидемия неизвестного вируса, который за считанные минуты распространяется и заражает любого человека. Небольшой группе людей все же удается выжить, укрывшись вместе с военнослужащими под командованием полковника ГРУ в специальном бункере, где на протяжении трех лет ученые и военные пытаются создать вакцину от вируса.

Качество: WEB-DL 1080p
Формат: MKV

Видео: MPEG-4 AVC, ~ 5000 Кбит/с, 1920x1080
Аудио: 48 kHz, AC3 Dolby Digital, 2/0 (L,R) ch, ~ 192 kbps
скриншот  скриншот  скриншот  скриншот  

General
Unique ID : 192579833181957156418808663100728420451 (0x90E186D87FEB3493860A42F45DAA2863)
Complete name : D:\Gorizont.2019.WEB-DL.(1080p).Getty\Gorizont.e01.2019.WEB-DL.(1080p).Getty.mkv
Format : Matroska
Format version : Version 4 / Version 2
File size : 1.76 GiB
Duration : 49 min 26 s
Overall bit rate mode : Constant
Overall bit rate : 5 093 kb/s
Movie name : Gorizont.e01.2019.WEB-DL.(1080p).Getty
Encoded date : UTC 2019-08-14 22:28:20
Writing application : mkvmerge v7.8.0 ('River Man') 32bit built on Mar 27 2015 16:18:02
Writing library : libebml v1.3.1 + libmatroska v1.4.2

Video
ID : 1
Format : AVC
Format/Info : Advanced Video Codec
Format profile : Baseline@L4
Format settings : 4 Ref Frames
Format settings, CABAC : No
Format settings, ReFrames : 4 frames
Codec ID : V_MPEG4/ISO/AVC
Duration : 49 min 26 s
Bit rate mode : Constant
Bit rate : 5 000 kb/s
Width : 1 920 pixels
Height : 1 080 pixels
Display aspect ratio : 16:9
Frame rate mode : Constant
Frame rate : 25.000 FPS
Standard : PAL
Color space : YUV
Chroma subsampling : 4:2:0
Bit depth : 8 bits
Scan type : Progressive
Bits/(Pixel*Frame) : 0.096
Stream size : 1.69 GiB (96%)
Default : Yes
Forced : No
Color range : Limited
Color primaries : BT.709
Transfer characteristics : BT.709
Matrix coefficients : BT.709

Audio
ID : 2
Format : AC-3
Format/Info : Audio Coding 3
Codec ID : A_AC3
Duration : 49 min 26 s
Bit rate mode : Constant
Bit rate : 192 kb/s
Channel(s) : 2 channels
Channel positions : Front: L R
Sampling rate : 48.0 kHz
Frame rate : 31.250 FPS (1536 SPF)
Bit depth : 16 bits
Compression mode : Lossy
Stream size : 67.9 MiB (4%)
Service kind : Complete Main
Default : Yes
Forced : No

Внимание! Раздача ведётся путём добавления новых серий; при каждом добавлении создаётся новый торрент. Чтобы начать докачку новой серии, пользователям необходимо сделать следующее:
(1) остановить скачивание,
(2) удалить старый торрент у себя из клиента (старые серии удалять не надо),
(3) скачать новый торрент и запустить его у себя в клиенте вместо старого, при этом указать клиенту путь в старую папку куда и должно происходить скачивание новых серий.

Ваш клиент при этом должен произвести хеширование (проверку) старой папки (если не производит сам - помогите ему сделать это), и будет докачивать только те серии которых у вас ещё нет. Старые серии при этом не удаляются, а продолжают раздаваться!

Eсли вы уже удалили старые серии, то предотвратить повторную закачку старых серий можно, отжав галочку в соответствующих местах при запуске нового торрента. По возможности, желательно не удалять старые серии как можно дольше чтобы релизёр не столько продолжал раздавать старые серии, а смог сконцентрироваться на новых.
piratbit.org



Скачать Горизонт через торрент https://i106.fastpic.ru/big/2019/0815/1f/8b1ce0fd3da8669e0f10ce7afad5821f.jpg Скачать фильм Горизонт через торрент бесплантно в хорошем качестве Описание: На города обрушивается эпидемия неизвестного вируса, который за считанные минуты распространяется и заражает любого человека. ... 10 10 4
Торрент: Зарегистрирован [2019-08-15 04:39] · скачан: 144 раз
Статус: √ проверено
Размер: 1.76 GB
Как cкачать? Как скачать Горизонт через торрент | UTorrent

% Раздел Тема Автор DL S | L
TNT serials [ 634 MB ] Горизонт / Сезон: 1 / Серии: 1- из 8 [2019 WEBRip-AVC] bober100 Скачать
1 | 0
TNT serials [ 600 MB ] Горизонт / Сезон: 1 / Серии: 1- из 8 [2019 WEB-DLRip] bober100 Скачать
1 | 0

28-11-2019 20:33  

Отключить всю рекламу на сайте

    Дорогой пользователь! Огромная просьба, поблагодарите релизера, оцените раздачу и оставьте свои комментарий, если Вы скачали Горизонт через торрент бесплатно! Внесите свою лепту в развитие PiratBit!
    Комментировать посты могут только пользователи прошедшие не сложную регистрацию
    Показать сообщения:    

    Горизонт через торрент
    Скачать бесплатно Горизонт
    Горизонт скачать торрент
    Горизонт смотреть онлайн
    Cкачать фильм Горизонт бесплатно
    Горизонт скачать торрент в хорошем качестве
    Горизонт смотреть онлайн бесплатно в хорошем качестве


    Вы не можете начинать темы
    Вы не можете отвечать на сообщения
    Вы не можете редактировать свои сообщения
    Вы не можете удалять свои сообщения
    Вы не можете голосовать в опросах
    Вы не можете прикреплять файлы к сообщениям
    Вы можете скачивать файлы