1 сезон

3 сезон

iTunes

1

iTunes

DUB Netflix

iTunes

13

1 сезон

RePack

30

Deluxe

pack

Легкие деньги

ВАЖНО

ИГРА 18+

pack

RePack

MK11

RePack

jed

RePack

fifa19

RePack

RDR2

RePack

NEED FOR SPEED™ PAYBACK

4 сезон

9 сезон

Бесстыжие 9 сезон

Все сериалы

все сериалы на PB.wtf

RePack

FAR CRY 5

Anonymous, доброй ночи, мы не успеваем до 1 числа собрать деньги на оплату серверов, помогите нам пожалуйста в это трудное время. В качестве благодарности мы отключим Вам всю рекламу на сайте (укажите свой ник в строку Ваше имя)!

×
  
Magnet ссылка

Горизонт / Сезон: 1 / Серии: 1- из 8 (Олег Трофим) [2019, Фантастика, WEBRip-AVC] piratbit.org

Горизонт через торрент piratbit.org

Размер: 634 MB | Добавлен: 1 год 10 мес. назад | Торрент скачан:72 раза
Скачать  

15-08-2019 09:39 Горизонт Скачать торрент  

Горизонт
Год выпуска: 2019
Страна: Россия
Жанр: Фантастика
Продолжительность: ~ 00:49:26
Перевод: Не требуется
Субтитры: отсутствуют

Режиссер: Олег Трофим

скриншот  

В ролях: Алексей Кравченко, Илья Маланин, Ирина Старшенбаум, Федор Воронцов, Филипп Авдеев, Вань Шень, Илья Кипоренко, Марина Кондратьева, Кристина Кучеренко, Алла Малкова, Юрий Климов, Валентин Самохин, Валерий Скляров, Иван Макаревич, Олег Дуленин

Описание: На города обрушивается эпидемия неизвестного вируса, который за считанные минуты распространяется и заражает любого человека. Небольшой группе людей все же удается выжить, укрывшись вместе с военнослужащими под командованием полковника ГРУ в специальном бункере, где на протяжении трех лет ученые и военные пытаются создать вакцину от вируса.

Качество: WEBRip-AVC
Формат: MKV

Видео: MPEG-4 AVC, ~ 1600 Кбит/с, 1024x424, 25 кадр/с
Аудио: 48 kHz, AC3 Dolby Digital, 2/0 (L,R) ch, ~ 192 kbps
скриншот  скриншот  скриншот  скриншот  

Общее
Уникальный идентификатор : 236433459428693490455142564781609905837 (0xB1DF6D8D4572191EB4352AB7F352EEAD)
Полное имя : C:\Горизонт.(2019).WEBRip.(AVC).Files-x\01.Gorizont.(2019).WEBRip.(AVC).by.Серый1779.Files-x.mkv
Формат : Matroska
Версия формата : Version 2
Размер файла : 634 Мбайт
Продолжительность : 49 м. 26 с.
Общий поток : 1793 Кбит/сек
Дата кодирования : UTC 2019-08-15 08:23:42
Программа кодирования : mkvmerge v7.8.0 ('River Man') 32bit built on Apr 3 2015 12:11:22
Библиотека кодирования : libebml v1.3.1 + libmatroska v1.4.2

Видео
Идентификатор : 1
Формат : AVC
Формат/Информация : Advanced Video Codec
Профиль формата : High@L4.1
Настройки формата : CABAC / 9 Ref Frames
Параметр CABAC формата : Да
Параметр RefFrames формата : 9 кадров
Идентификатор кодека : V_MPEG4/ISO/AVC
Продолжительность : 49 м. 26 с.
Битрейт : 1600 Кбит/сек
Ширина : 1024 пикселя
Высота : 424 пикселя
Соотношение сторон : 2,40:1
Режим частоты кадров : Постоянный
Частота кадров : 25,000 кадров/сек
Цветовое пространство : YUV
Субдискретизация насыщенности : 4:2:0
Битовая глубина : 8 бит
Тип развёртки : Прогрессивная
Бит/(Пиксели*Кадры) : 0.147
Размер потока : 554 Мбайт (87%)
Библиотека кодирования : x264 core 146 r2538 121396c
Настройки программы : cabac=1 / ref=9 / deblock=1:-2:-1 / analyse=0x3:0x133 / me=umh / subme=9 / psy=1 / psy_rd=1.00:0.15 / mixed_ref=1 / me_range=32 / chroma_me=1 / trellis=2 / 8x8dct=1 / cqm=0 / deadzone=21,11 / fast_pskip=0 / chroma_qp_offset=-3 / threads=18 / lookahead_threads=3 / sliced_threads=0 / nr=0 / decimate=1 / interlaced=0 / bluray_compat=0 / constrained_intra=0 / bframes=9 / b_pyramid=2 / b_adapt=2 / b_bias=0 / direct=1 / weightb=1 / open_gop=0 / weightp=2 / keyint=250 / keyint_min=25 / scenecut=40 / intra_refresh=0 / rc=2pass / mbtree=0 / bitrate=1600 / ratetol=1.0 / qcomp=0.60 / qpmin=0 / qpmax=69 / qpstep=4 / cplxblur=20.0 / qblur=0.5 / ip_ratio=1.40 / pb_ratio=1.30 / aq=2:1.00
Default : Да
Forced : Нет
Цветовой диапазон : Limited
Основные цвета : BT.709
Характеристики трансфера : BT.709
Коэффициенты матрицы : BT.709

Аудио
Идентификатор : 2
Формат : AC-3
Формат/Информация : Audio Coding 3
Коммерческое название : Dolby Digital
Идентификатор кодека : A_AC3
Продолжительность : 49 м. 26 с.
Вид битрейта : Постоянный
Битрейт : 192 Кбит/сек
Каналы : 2 канала
ChannelLayout : L R
Частота : 48,0 КГц
Частота кадров : 31,250 кадров/сек (1536 SPF)
Битовая глубина : 16 бит
Метод сжатия : С потерями
Размер потока : 67,9 Мбайт (11%)
ServiceKind/String : Complete Main
Default : Да
Forced : Нет

Внимание! Раздача ведётся путём добавления новых серий; при каждом добавлении создаётся новый торрент. Чтобы начать докачку новой серии, пользователям необходимо сделать следующее:
(1) остановить скачивание,
(2) удалить старый торрент у себя из клиента (старые серии удалять не надо),
(3) скачать новый торрент и запустить его у себя в клиенте вместо старого, при этом указать клиенту путь в старую папку куда и должно происходить скачивание новых серий.

Ваш клиент при этом должен произвести хеширование (проверку) старой папки (если не производит сам - помогите ему сделать это), и будет докачивать только те серии которых у вас ещё нет. Старые серии при этом не удаляются, а продолжают раздаваться!

Eсли вы уже удалили старые серии, то предотвратить повторную закачку старых серий можно, отжав галочку в соответствующих местах при запуске нового торрента. По возможности, желательно не удалять старые серии как можно дольше чтобы релизёр не столько продолжал раздавать старые серии, а смог сконцентрироваться на новых.
piratbit.org



Скачать Горизонт через торрент https://i106.fastpic.ru/big/2019/0815/1f/8b1ce0fd3da8669e0f10ce7afad5821f.jpg Скачать фильм Горизонт через торрент бесплантно в хорошем качестве Описание: На города обрушивается эпидемия неизвестного вируса, который за считанные минуты распространяется и заражает любого человека. ... 10 10 3
Торрент: Зарегистрирован [2019-08-15 09:39] · скачан: 72 раз
Статус: √ проверено
Размер: 634 MB
Как cкачать? Как скачать Горизонт через торрент | UTorrent

% Раздел Тема Автор DL S | L
TNT serials [ 1.76 GB ] Горизонт / Сезон: 1 / Серии: 1- из 8 [2019 WEB-DL 1080p] bober100 Скачать
1 | 0
TNT serials [ 600 MB ] Горизонт / Сезон: 1 / Серии: 1- из 8 [2019 WEB-DLRip] bober100 Скачать
1 | 0

28-11-2019 20:33  

Отключить всю рекламу на сайте

    Дорогой пользователь! Огромная просьба, поблагодарите релизера, оцените раздачу и оставьте свои комментарий, если Вы скачали Горизонт через торрент бесплатно! Внесите свою лепту в развитие PiratBit!
    Комментировать посты могут только пользователи прошедшие не сложную регистрацию
    Показать сообщения:    

    Горизонт через торрент
    Скачать бесплатно Горизонт
    Горизонт скачать торрент
    Горизонт смотреть онлайн
    Cкачать фильм Горизонт бесплатно
    Горизонт скачать торрент в хорошем качестве
    Горизонт смотреть онлайн бесплатно в хорошем качестве


    Вы не можете начинать темы
    Вы не можете отвечать на сообщения
    Вы не можете редактировать свои сообщения
    Вы не можете удалять свои сообщения
    Вы не можете голосовать в опросах
    Вы не можете прикреплять файлы к сообщениям
    Вы можете скачивать файлы