MEGA SALE -50% FORZA HORIZON 4 ULTIMATE+ВСЕ DLC+ОНЛАЙН всего за 599р. 299 руб. (супер цена). Внимание количество ограничено!!!

iTunes

1+1

iTunes

мы

iTunes

1

iTunes

Чернобыль

iTunes

Ральф против интернета

Лицензия

ПШазам

Лицензия

Игра престолов

Лицензия

30
pack

ВАЖНО

!!Акция!!

Alien_RageХит недели

RePack

Resident Evil 21

ИГРА 18+

pack

RePack

Metro:Exodus

!!Акция!!

Alien_Rage

RePack

fifa19

RePack

Assassins Creed: Odyssey

RePack

NEED FOR SPEED™ PAYBACK

3 сезон

9 сезон

Бесстыжие 9 сезон

Все сериалы

все сериалы на PB.wtf

RePack

FAR CRY 5
Ребята, катастрофически не хватает 7730р. для оплаты серверов за АВГУСТ (всвязи с блокировками трафик упал в 3 раза), 1-2р., выручайте.
  

Аладдин / Aladdin / Сезон: 1, 2 / Серии: 1-86 из 86 (Алан Заслов, Боб Хечхок, Тоби Шелтон / Alan Zaslove, Bob Hathсoсk, Toby Shelton) [1994-95, приключения, семейный, DVB] [Dub] (РТР) piratbit.org

Аладдин через торрент piratbit.org

Размер: 82.48 GB | Добавлен: 1 мес. 2 д. назад | Торрент скачан:8 раз
Скачать  

16-08-2019 19:59 Аладдин Скачать торрент  

Аладдин / Aladdin Год выпуска: 1994-1995 г.
Страна: США
Жанр: приключения, семейный
Продолжительность серии: ~00:22:00
Перевод: Профессиональный (дублированный) РТР

субтитры: нет

Режиссёр: Алан Заслов, Боб Хечхок, Тоби Шелтон / Alan Zaslove, Bob Hathсoсk, Toby Shelton

Роли озвучивали:
Аладдин – Андрей Бархударов
Жасмин – Инна Тимофеева (1-13) и Жанна Никонова (14-86)
Султан – Виктор Рождественский
Джинн – Алексей Иващенко
Яго – Борис Быстров
Расул – Александр Рыжков
Садира – Елена Борзунова
Мозенрат – Сергей Чурбаков
Абис-Мал – Юрий Саранцев
Харуд Хази Бин – Виктор Незнанов
Механикус – Владимир Еремин
Мираж – Марина Тарасова
Амин Домула – Александр Воеводин
Аям Агул – Алексей Золотницкий
Нефир – Александр Рахленко
Азиз – Всеволод Кузнецов
Малчо – Виктор Бохон
Минос – Всеволод Абдулов
Фасир – Всеволод Кузнецов

Описание: Красочный и добрый мультсериал о приключениях Аладдина, Жасмин, попугая Яго и мартышки Абу. И какие же арабские сказки без волшебства? И в этой тоже есть — Джинн! Он весел, всемогущ и просто неотразим. С ним не соскучишься, но он тоже попадает в переделки, ведь всегда есть кто-то более могучий. Красивый сериал от Диснея с большим количеством юмора.



Качество: DVB (SAT-Remux)
Формат: MPG
Видео: MPEG-2, PAL, 4:3, 720x576, 25 fps, ~6000 kbps
Аудио: AC3, 48 kHz, 2 ch, 224 kbps
Субтитры: отсутствуют
General
Complete name : V:\DISNEY\Аладдин\34 - Цена победы.mpg
Format : MPEG-PS
File size : 991 MiB
Duration : 21 min 49 s
Overall bit rate mode : Variable
Overall bit rate : 6 348 kb/s

Video
ID : 224 (0xE0)
Format : MPEG Video
Format version : Version 2
Format profile : Main@Main
Format settings, BVOP : Yes
Format settings, Matrix : Custom
Format settings, GOP : Variable
Format settings, picture st : Frame
Duration : 21 min 49 s
Bit rate mode : Variable
Bit rate : 5 998 kb/s
Maximum bit rate : 15.0 Mb/s
Width : 720 pixels
Height : 576 pixels
Display aspect ratio : 4:3
Frame rate : 25.000 FPS
Standard : PAL
Color space : YUV
Chroma subsampling : 4:2:0
Bit depth : 8 bits
Scan type : Interlaced
Scan order : Top Field First
Compression mode : Lossy
Bits/(Pixel*Frame) : 0.579
Time code of first frame : 00:00:00:00
Time code source : Group of pictures header
Stream size : 937 MiB (94%)

Audio
ID : 189 (0xBD)-128 (0x80)
Format : AC-3
Format/Info : Audio Coding 3
Format settings, Endianness : Big
Muxing mode : DVD-Video
Duration : 21 min 47 s
Bit rate mode : Constant
Bit rate : 224 kb/s
Channel(s) : 2 channels
Channel positions : Front: L R
Sampling rate : 48.0 kHz
Frame rate : 31.250 FPS (1536 SPF)
Bit depth : 16 bits
Compression mode : Lossy
Stream size : 34.9 MiB (4%)
Service kind : Complete Main
скриншот  скриншот  скриншот  
piratbit.org



Скачать Аладдин через торрент http://i83.fastpic.ru/big/2016/1102/38/0ea2ce2ddc4f7113808616bfea6f3438.jpg Скачать фильм Аладдин через торрент бесплантно в хорошем качестве Описание: Красочный и добрый мультсериал о приключениях Аладдина, Жасмин, попугая Яго и мартышки Абу. И какие же арабские сказки без ... 10 10 3
Info! Золотая раздача, скачанное не засчитывается.
Торрент: Зарегистрирован [2019-08-16 19:59] · скачан: 8 раз
Статус: √ проверено
Размер: 82.48 GB
Как cкачать? Как скачать Аладдин через торрент | qTorrent


>> Регистрируемся здесь <<






Отзывы и комментарии о схеме читаем и пишем здесь: ---> Отзывы и комментарии о схеме

Новые благодарочки в телеграм довольных пользователей:
скриншот   скриншот   скриншот   скриншот   скриншот

17-08-2019 02:17 Аладдин Скачать торрент  

Любимый мультсериал детства))Попугай вообще красавец!!!)piratbit.org
Kkillermax2013 писал(а):

согласен, помню мелким угарал с попугая и джина приколиста ))



    Дорогой пользователь! Огромная просьба, поблагодарите релизера, оцените раздачу и оставьте свои комментарий, если Вы скачали Аладдин через торрент бесплатно! Внесите свою лепту в развитие PiratBit!
    Комментировать посты могут только пользователи прошедшие не сложную регистрацию
    Показать сообщения:    

    Аладдин через торрент
    Скачать бесплатно Аладдин
    Аладдин скачать торрент
    Аладдин смотреть онлайн
    Cкачать фильм Аладдин бесплатно
    Аладдин скачать торрент в хорошем качестве
    Аладдин смотреть онлайн бесплатно в хорошем качестве


    Вы не можете начинать темы
    Вы не можете отвечать на сообщения
    Вы не можете редактировать свои сообщения
    Вы не можете удалять свои сообщения
    Вы не можете голосовать в опросах
    Вы не можете прикреплять файлы к сообщениям
    Вы можете скачивать файлы