Ссылка на приватное зеркало нашего сайта всего за 1$. Внимание количество ограничено!!!

2 сезон

iTunes

1 сезон

1

iTunes

iTunes

iTunes

1 сезон

RePack

30

ИГРА 18+

pack

ВАЖНО

!!Акция!!

Alien_RageХит недели

RePack

MK11
pack

Забери бонус

RePack

jed

!!Акция!!

Alien_Rage

RePack

fifa19

RePack

Assassins Creed: Odyssey

RePack

NEED FOR SPEED™ PAYBACK

4 сезон

9 сезон

Бесстыжие 9 сезон

Все сериалы

все сериалы на PB.wtf

RePack

FAR CRY 5
  

Джентльмен из Кокоди / Le gentleman de cocody (Кристиан Жак) [1972, приключения, BDRip 1080p by msltel] 2 x MVO piratbit.org

Джентльмен из Кокоди через торрент piratbit.org

Размер: 8.5 GB | Добавлен: 1 год 2 мес. назад | Торрент скачан:5 раз
Скачать  

18-08-2019 08:35 Джентльмен из Кокоди Скачать торрент  

Название: Джентльмен из Кокоди
Оригинальное название: Le gentleman de cocody
Год выпуска: 1972
Страна: Франция, Италия
Жанр: приключения
Продолжительность: 01:24:14
Перевод: профессиональный многоголосый

Режиссер: Кристиан Жак
В ролях: Жан Марэ, Лизелотте Пульвер, Нэнси Холлоуэй, Мария Грация Буччелла, Робер Дальбан, Мишель Делакруа, Боб Морель, Реми Жюльен, Ален Шнайдер, Ги Анри, Жозеф Дьоманде, Ибрагим Куяте, Жак Морель, Филип Клэй

О фильме: Французский дипломат в Африке случайно становится свидетелем разборки двух преступных группировок, охотящихся за бриллиантами... Полиция, обеспокоенная серией загадочных убийств, находит на жертвах следы когтей пантеры... Счастливчику и ловеласу предстоит путешествие по африканской саванне, погони на всевозможных видах транспорта, опасности в логове врага, перестрелки и долгожданный поцелуй в финале...



Качество: BDRip 1080p
Формат: MKV
Видео: MPEG-4 AVC, 13.3 Mбит/с, 1920x816
Аудио 1: русский, AC3, 192 kbps, 2 ch, 48 kHz [закадровый многоголосый, ТК Россия]
Аудио 2: русский, AC3, 192 kbps, 2 ch, 48 kHz [закадровый многоголосый, Фильм Экспорт]
Аудио 3: французский, DTS, 768 kbps, 2 ch, 48 kHz [оригинал]
Главы/чаптеры
Общее
Уникальный идентификатор : 205022800772746076424095874788788215623 (0x9A3DF48356297489905A60BEE7C31F47)
Полное имя : D:\Video\Джентльмен из Кокоди.1965.BDRip 1080p by msltel.mkv
Формат : Matroska
Версия формата : Version 4
Размер файла : 8,50 Гбайт
Продолжительность : 1 ч. 24 м.
Общий поток : 14,4 Мбит/сек
Название фильма : Rip by msltel
Дата кодирования : UTC 2019-08-18 05:36:30
Программа кодирования : mkvmerge v8.2.0 ('World of Adventure') 64bit
Библиотека кодирования : libebml v1.3.1 + libmatroska v1.4.2

Видео
Идентификатор : 1
Формат : AVC
Формат/Информация : Advanced Video Codec
Профиль формата : High@L4.1
Настройки формата : CABAC / 4 Ref Frames
Параметр CABAC формата : Да
Параметр RefFrames формата : 4 кадра
Идентификатор кодека : V_MPEG4/ISO/AVC
Продолжительность : 1 ч. 24 м.
Битрейт : 13,3 Мбит/сек
Ширина : 1920 пикселей
Высота : 816 пикселей
Соотношение сторон : 2,35:1
Режим частоты кадров : Постоянный
Частота кадров : 24,000 кадра/сек
Цветовое пространство : YUV
Субдискретизация насыщенности : 4:2:0
Битовая глубина : 8 бит
Тип развёртки : Прогрессивная
Бит/(Пиксели*Кадры) : 0.353
Размер потока : 7,82 Гбайт (92%)
Библиотека кодирования : x264 core 157 r2935 545de2f
Настройки программы : cabac=1 / ref=4 / deblock=1:-2:-2 / analyse=0x3:0x113 / me=umh / subme=11 / psy=1 / psy_rd=1.00:0.15 / mixed_ref=1 / me_range=32 / chroma_me=1 / trellis=2 / 8x8dct=1 / cqm=0 / deadzone=21,11 / fast_pskip=0 / chroma_qp_offset=-3 / threads=6 / lookahead_threads=1 / sliced_threads=0 / nr=0 / decimate=1 / interlaced=0 / bluray_compat=0 / constrained_intra=0 / bframes=6 / b_pyramid=2 / b_adapt=2 / b_bias=0 / direct=1 / weightb=1 / open_gop=0 / weightp=2 / keyint=230 / keyint_min=23 / scenecut=40 / intra_refresh=0 / rc_lookahead=40 / rc=crf / mbtree=1 / crf=19.2 / qcomp=0.60 / qpmin=0 / qpmax=69 / qpstep=4 / vbv_maxrate=50000 / vbv_bufsize=62500 / crf_max=0.0 / nal_hrd=none / filler=0 / ip_ratio=1.40 / aq=1:1.00
Язык : French
Default : Да
Forced : Нет

Аудио #1
Идентификатор : 2
Формат : AC-3
Формат/Информация : Audio Coding 3
Коммерческое название : Dolby Digital
Идентификатор кодека : A_AC3
Продолжительность : 1 ч. 24 м.
Вид битрейта : Постоянный
Битрейт : 192 Кбит/сек
Каналы : 2 канала
ChannelLayout : L R
Частота : 48,0 КГц
Частота кадров : 31,250 кадров/сек (1536 SPF)
Битовая глубина : 16 бит
Метод сжатия : С потерями
Размер потока : 116 Мбайт (1%)
Заголовок : MVO ТК Россия
Язык : Russian
ServiceKind/String : Complete Main
Default : Да
Forced : Нет

Аудио #2
Идентификатор : 3
Формат : AC-3
Формат/Информация : Audio Coding 3
Коммерческое название : Dolby Digital
Идентификатор кодека : A_AC3
Продолжительность : 1 ч. 24 м.
Вид битрейта : Постоянный
Битрейт : 192 Кбит/сек
Каналы : 2 канала
ChannelLayout : L R
Частота : 48,0 КГц
Частота кадров : 31,250 кадров/сек (1536 SPF)
Битовая глубина : 16 бит
Метод сжатия : С потерями
Размер потока : 116 Мбайт (1%)
Заголовок : MVO Фильм Экспорт
Язык : Russian
ServiceKind/String : Complete Main
Default : Нет
Forced : Нет

Аудио #3
Идентификатор : 4
Формат : DTS
Формат/Информация : Digital Theater Systems
Идентификатор кодека : A_DTS
Продолжительность : 1 ч. 24 м.
Вид битрейта : Постоянный
Битрейт : 768 Кбит/сек
Каналы : 2 канала
ChannelLayout : Lt Rt
Частота : 48,0 КГц
Частота кадров : 93,750 кадра/сек (512 SPF)
Битовая глубина : 16 бит
Метод сжатия : С потерями
Размер потока : 463 Мбайт (5%)
Заголовок : original
Язык : French
Default : Нет
Forced : Нет

Меню
00:00:00.000 : :Chapter 1
00:08:42.914 : :Chapter 2
00:14:23.581 : :Chapter 3
00:20:45.750 : :Chapter 4
00:28:44.875 : :Chapter 5
00:35:25.125 : :Chapter 6
00:42:10.083 : :Chapter 7
00:47:21.166 : :Chapter 8
00:54:56.875 : :Chapter 9
01:04:52.541 : :Chapter 10
01:09:30.957 : :Chapter 11
01:17:13.250 : :Chapter 12
piratbit.org



Скачать Джентльмен из Кокоди через торрент https://b.radikal.ru/b40/1908/a2/ff70bdc1d31c.jpg Скачать фильм Джентльмен из Кокоди через торрент бесплантно в хорошем качестве О фильме: Французский дипломат в Африке случайно становится свидетелем разборки двух преступных группировок, охотящихся за бриллиантами... ... 10 10 1
Торрент: Зарегистрирован [2019-08-18 08:35] · скачан: 5 раз
Статус: √ проверено
Размер: 8.5 GB
Как cкачать? Как скачать Джентльмен из Кокоди через торрент | qTorrent

% Раздел Тема Автор DL S | L
Классика зарубежного кино [ 3.16 GB ] Джентльмен из Кокоди / Le gentleman de cocody [1972 BDRip 720p by msltel] 2 x MVO msltel Скачать
1 | 0

28-11-2019 20:33  

Отключить всю рекламу на сайте

18-08-2019 09:46 Джентльмен из Кокоди Скачать торрент  

Топик был перенесен из форума Фильмы [HD 720p, 1080p] (Хороший звук DUB, MVO) в форум Классика зарубежного кино


bober100piratbit.org



    Дорогой пользователь! Огромная просьба, поблагодарите релизера, оцените раздачу и оставьте свои комментарий, если Вы скачали Джентльмен из Кокоди через торрент бесплатно! Внесите свою лепту в развитие PiratBit!
    Комментировать посты могут только пользователи прошедшие не сложную регистрацию
    Показать сообщения:    

    Джентльмен из Кокоди через торрент
    Скачать бесплатно Джентльмен из Кокоди
    Джентльмен из Кокоди скачать торрент
    Джентльмен из Кокоди смотреть онлайн
    Cкачать фильм Джентльмен из Кокоди бесплатно
    Джентльмен из Кокоди скачать торрент в хорошем качестве
    Джентльмен из Кокоди смотреть онлайн бесплатно в хорошем качестве


    Вы не можете начинать темы
    Вы не можете отвечать на сообщения
    Вы не можете редактировать свои сообщения
    Вы не можете удалять свои сообщения
    Вы не можете голосовать в опросах
    Вы не можете прикреплять файлы к сообщениям
    Вы можете скачивать файлы