2 сезон

iTunes

WEBRip

1

2 сезон

iTunes

1 сезон

1 сезон

RePack

30

Новинка

ВАЖНО

ИГРА 18+

pack

RePack

MK11
pack

Легкие деньги

RePack

jed

RePack

fifa19

RePack

RDR2

RePack

NEED FOR SPEED™ PAYBACK

4 сезон

9 сезон

Бесстыжие 9 сезон

Все сериалы

все сериалы на PB.wtf

RePack

FAR CRY 5

Anonymous, доброй ночи, мы не успеваем собрать деньги на оплату серверов за февраль, помогите нам пожалуйста в это трудное время. В качестве благодарности мы отключим Вам всю рекламу на сайте (укажите свой ник в строку Ваше имя)!

×
  
Magnet ссылка

Беверли Хиллз 90210 / Beverly Hills 90210 / Сезон: 1-8 (все серии), 9 (2-10 серии) (Аарон Спеллинг) [1990-1998, мелодрама, SATRip] [Ukr MVO] piratbit.org

Беверли Хиллз 90210 через торрент piratbit.org

Размер: 82.09 GB | Добавлен: 1 год 6 мес. назад | Торрент скачан:1 раз
Скачать  

18-08-2019 11:33 Беверли Хиллз 90210 Скачать торрент  

Беверли Хиллз 90210 / Beverly Hills 90210 Страна: США
Жанр: мелодрама
Год выпуска: 1990-1998
Продолжительность: ~00:45:00 мин.
Перевод: Украинский (профессиональный многоголосый)
Режиссер:
Аарон Спеллинг

В ролях:
Джейсон Пристли, Дженни Гарт, Йен Зиринг, Гэбриэлль Картерис, Люк Перри, Брайан Остин Грин, Тори Спеллинг, Марк Д. Эспиноса, Тиффани Тиссен, Кэрол Поттер, Джеймс Экхаус и др.

Описание:
Cериал об американской молодежи девяностых. История шумной компании сначала школьников, а затем студентов. Основные темы сериала не только любовь или непростые отношения с родителями, но и такие проблемы, как ранний алкоголизм, СПИД, подростковые беременности, изнасилования и даже самоубийства. Словом, реальная жизнь.
rating
Качество: SATRip
Формат: AVI
Видео кодек: XviD
Аудио кодек: MP3
Видео: Xvid / 576x432, 720х576 / ~1100 kbps
Аудио: Ukr MVO / MP3 / 48.0 KHz / 192 kbps / 2 channels
General
Complete name : E:\90210\Season_1_episod_0 - Class Of Beverly Hills (1 часть).avi
Format : AVI
Format/Info : Audio Video Interleave
File size : 431 MiB
Duration : 45 min 26 s
Overall bit rate : 1 325 kb/s
Writing application : VirtualDubMod 1.5.10.1 (build 2366/release)
Writing library : VirtualDubMod build 2366/release

Video
ID : 0
Format : MPEG-4 Visual
Format profile : Advanced Simple@L5
Format settings : BVOP2
Format settings, BVOP : 2
Format settings, QPel : No
Format settings, GMC : No warppoints
Format settings, Matrix : Default (H.263)
Muxing mode : Packed bitstream
Codec ID : XVID
Codec ID/Hint : XviD
Duration : 45 min 26 s
Bit rate : 1 124 kb/s
Width : 576 pixels
Height : 432 pixels
Display aspect ratio : 4:3
Frame rate : 23.976 (24000/1001) FPS
Color space : YUV
Chroma subsampling : 4:2:0
Bit depth : 8 bits
Scan type : Progressive
Compression mode : Lossy
Bits/(Pixel*Frame) : 0.188
Stream size : 365 MiB (85%)
Writing library : XviD 1.0.3 (UTC 2004-12-20)

Audio
ID : 1
Format : MPEG Audio
Format version : Version 1
Format profile : Layer 3
Codec ID : 55
Codec ID/Hint : MP3
Duration : 45 min 26 s
Bit rate mode : Constant
Bit rate : 192 kb/s
Channel(s) : 1 channel
Sampling rate : 48.0 kHz
Compression mode : Lossy
Stream size : 62.4 MiB (14%)
Alignment : Aligned on interleaves
Interleave, duration : 42 ms (1.00 video frame)
Interleave, preload duratio : 504 ms
Writing library : LAME3.93
Encoding settings : -m m -V 4 -q 0 -lowpass 22.7 -b 192
скриншот   скриншот   скриншот   скриншот  
piratbit.org



Скачать Беверли Хиллз 90210 через торрент http://i58.fastpic.ru/big/2014/0114/f5/14a04162fbd17f02e6f69d00b1256cf5.jpg Скачать фильм Беверли Хиллз 90210 через торрент бесплантно в хорошем качестве Описание:Cериал об американской молодежи девяностых. История шумной компании сначала школьников, а затем студентов. Основные темы сериала ... 10 10 2
Info! Серебряная раздача, засчитывается только 50% скачанного.
Торрент: Зарегистрирован [2019-08-18 11:33] · скачан: 1 раз
Статус: √ проверено
Размер: 82.09 GB
Как cкачать? Как скачать Беверли Хиллз 90210 через торрент | UTorrent

28-11-2019 20:33  

Отключить всю рекламу на сайте

    Дорогой пользователь! Огромная просьба, поблагодарите релизера, оцените раздачу и оставьте свои комментарий, если Вы скачали Беверли Хиллз 90210 через торрент бесплатно! Внесите свою лепту в развитие PiratBit!
    Комментировать посты могут только пользователи прошедшие не сложную регистрацию
    Показать сообщения:    

    Беверли Хиллз 90210 через торрент
    Скачать бесплатно Беверли Хиллз 90210
    Беверли Хиллз 90210 скачать торрент
    Беверли Хиллз 90210 смотреть онлайн
    Cкачать фильм Беверли Хиллз 90210 бесплатно
    Беверли Хиллз 90210 скачать торрент в хорошем качестве
    Беверли Хиллз 90210 смотреть онлайн бесплатно в хорошем качестве


    Вы не можете начинать темы
    Вы не можете отвечать на сообщения
    Вы не можете редактировать свои сообщения
    Вы не можете удалять свои сообщения
    Вы не можете голосовать в опросах
    Вы не можете прикреплять файлы к сообщениям
    Вы можете скачивать файлы