Ссылка на приватное зеркало всего за 1$. Внимание количество ограничено!!!

iTunes

iTunes

iTunes

1

iTunes

iTunes

iTunes

iTunes

iTunes

30
pack

Новость дня

ВАЖНО

!!Акция!!

Alien_RageХит недели

RePack

Resident Evil 21

ИГРА 18+

pack

RePack

jed

!!Акция!!

Alien_Rage

RePack

fifa19

RePack

Assassins Creed: Odyssey

RePack

NEED FOR SPEED™ PAYBACK

4 сезон

9 сезон

Бесстыжие 9 сезон

Все сериалы

все сериалы на PB.wtf

RePack

FAR CRY 5
  

Возвращение болотной твари / The Return of Swamp Thing (Джим Уайнорски) [1989, ужасы, фантастика, боевик, комедия, приключения, BDRip 1080p] 2xAVO+3xVO piratbit.org

Возвращение болотной твари через торрент piratbit.org

Размер: 8.76 GB | Добавлен: 9 мес. назад | Торрент скачан:5 раз
Скачать  

18-08-2019 19:35 Возвращение болотной твари Скачать торрент  

Возвращение болотной твари / The Return of Swamp Thing
Год выпуска: 1989
Страна: США
Жанр: ужасы, фантастика, боевик, комедия, приключения
Продолжительность: 01:27:02
Перевод: Авторский (одноголосый), Любительский (одноголосый, закадровый)
Субтитры: английские

Режиссер: Джим Уайнорски

rating

В ролях: Луи Журдан, Хэзер Локлир, Сара Дуглас, Дик Дурок, Джо Сагал, Эйс Маск, Моник Габриэль, РонРико Ли, Дэниэл Эмери Тейлор, Ральф Пейс, ...

Описание: Прекрасная Абигэйл приезжает в лабораторию своего отчима доктора Аркейна, чтобы узнать тайну смерти ее матери. К сожалению, Аркейн склонен лишить ее жизни для создания своей формулы бессмертия. На помощь Абигэйл приходит бывший доктор Холланд (а ныне болотное чудовище) и уносит ее в болото, где они вскоре безумно влюбляются друг в друга. Но их роман ставится под вопрос, когда Аркейн начинает охоту на эту странную парочку с целым арсеналом оружия…

Качество: BDRip 1080p
Формат: MKV

Видео: MPEG-4 AVC, 1920x1036, 13000 kbps, 24 fps
Аудио#1: AC-3, 2 ch, 192 kbps (Rus) - AVO Иванов Михаил Николаевич
Аудио#2: AC-3, 2 ch, 192 kbps (Rus) - AVO Дохалов Вартан Карлович
Аудио#3: AC-3, 2 ch, 192 kbps (Rus) - VO женский голос
Аудио#4: AC-3, 1 ch, 192 kbps (Rus) - VO Ужастик
Аудио#5: AC-3, 2 ch, 192 kbps (Rus) - VO
Аудио#6: AC-3, 6 ch, 448 kbps (Eng)
скриншот  скриншот  скриншот  скриншот  

скриншот  скриншот  скриншот  скриншот  

x264 [info]: frame I:773 Avg QP:18.09 size:214206
x264 [info]: frame P:26143 Avg QP:20.39 size:111192
x264 [info]: frame B:98423 Avg QP:22.41 size: 54959
x264 [info]: consecutive B-frames: 1.8% 2.5% 5.5% 16.8% 18.9% 40.9% 9.2% 2.1% 1.5% 0.5% 0.2% 0.1% 0.2%

Общее
Уникальный идентификатор : 189645413186873686454042187186752961792 (0x8EAC60C514EE354EB9E230611D93BD00)
Полное имя : Возвращение болотной твари (The Return of Swamp...) 1989 BDRip 1080р.mkv
Формат : Matroska
Версия формата : Version 2
Размер файла : 8,76 Гбайт
Продолжительность : 1 ч. 27 м.
Общий поток : 14,4 Мбит/сек
Дата кодирования : UTC 2019-08-17 11:27:49
Программа кодирования : mkvmerge v4.0.0 ('The Stars were mine') сборка от Jun 6 2010 16:18:42
Библиотека кодирования : libebml v1.0.0 + libmatroska v1.0.0

Видео
Идентификатор : 1
Формат : AVC
Формат/Информация : Advanced Video Codec
Профиль формата : High@L4.1
Параметр CABAC формата : Да
Параметр ReFrames формата : 4 кадра
Идентификатор кодека : V_MPEG4/ISO/AVC
Продолжительность : 1 ч. 27 м.
Битрейт : 13,0 Мбит/сек
Ширина : 1920 пикселей
Высота : 1036 пикселей
Соотношение сторон : 1,85:1
Режим частоты кадров : Постоянный
Частота кадров : 24,000 кадра/сек
Цветовое пространство : YUV
Субдискретизация насыщенности : 4:2:0
Битовая глубина : 8 бит
Тип развёртки : Прогрессивная
Бит/(Пиксели*Кадры) : 0.272
Размер потока : 7,73 Гбайт (88%)
Библиотека кодирования : x264 core 146 r2538 121396c
Настройки программы : cabac=1 / ref=4 / deblock=1:-3:-3 / analyse=0x3:0x133 / me=umh / subme=11 / psy=1 / psy_rd=1.00:0.00 / mixed_ref=1 / me_range=32 / chroma_me=1 / trellis=2 / 8x8dct=1 / cqm=0 / deadzone=21,11 / fast_pskip=0 / chroma_qp_offset=-2 / threads=12 / lookahead_threads=2 / sliced_threads=0 / nr=0 / decimate=0 / interlaced=0 / bluray_compat=0 / constrained_intra=0 / bframes=12 / b_pyramid=2 / b_adapt=2 / b_bias=0 / direct=3 / weightb=1 / open_gop=0 / weightp=2 / keyint=240 / keyint_min=24 / scenecut=40 / intra_refresh=0 / rc_lookahead=60 / rc=2pass / mbtree=0 / bitrate=13000 / ratetol=1.0 / qcomp=0.60 / qpmin=0 / qpmax=69 / qpstep=4 / cplxblur=20.0 / qblur=0.5 / vbv_maxrate=50000 / vbv_bufsize=62500 / nal_hrd=none / filler=0 / ip_ratio=1.40 / pb_ratio=1.30 / aq=1:0.80
Язык : English
Default : Нет
Forced : Нет

Аудио #1
Идентификатор : 2
Формат : AC-3
Формат/Информация : Audio Coding 3
Расширение режима : CM (complete main)
Параметр Endianness формата : Big
Идентификатор кодека : A_AC3
Продолжительность : 1 ч. 27 м.
Вид битрейта : Постоянный
Битрейт : 192 Кбит/сек
Каналы : 2 канала
Расположение каналов : Front: L R
Частота : 48,0 КГц
Частота кадров : 31,250 кадров/сек (1536 spf)
Метод сжатия : С потерями
Размер потока : 120 Мбайт (1%)
Заголовок : AVO Иванов Михаил Николаевич
Язык : Russian
Default : Нет
Forced : Нет

Аудио #2
Идентификатор : 3
Формат : AC-3
Формат/Информация : Audio Coding 3
Расширение режима : CM (complete main)
Параметр Endianness формата : Big
Идентификатор кодека : A_AC3
Продолжительность : 1 ч. 27 м.
Вид битрейта : Постоянный
Битрейт : 192 Кбит/сек
Каналы : 2 канала
Расположение каналов : Front: L R
Частота : 48,0 КГц
Частота кадров : 31,250 кадров/сек (1536 spf)
Метод сжатия : С потерями
Размер потока : 120 Мбайт (1%)
Заголовок : AVO Дохалов Вартан Карлович
Язык : Russian
Default : Нет
Forced : Нет

Аудио #3
Идентификатор : 4
Формат : AC-3
Формат/Информация : Audio Coding 3
Расширение режима : CM (complete main)
Параметр Endianness формата : Big
Идентификатор кодека : A_AC3
Продолжительность : 1 ч. 27 м.
Вид битрейта : Постоянный
Битрейт : 192 Кбит/сек
Каналы : 2 канала
Расположение каналов : Front: L R
Частота : 48,0 КГц
Частота кадров : 31,250 кадров/сек (1536 spf)
Метод сжатия : С потерями
Размер потока : 120 Мбайт (1%)
Заголовок : VO женский голос
Язык : Russian
Default : Нет
Forced : Нет

Аудио #4
Идентификатор : 5
Формат : AC-3
Формат/Информация : Audio Coding 3
Расширение режима : CM (complete main)
Параметр Endianness формата : Big
Идентификатор кодека : A_AC3
Продолжительность : 1 ч. 27 м.
Вид битрейта : Постоянный
Битрейт : 192 Кбит/сек
Каналы : 1 канал
Расположение каналов : Front: C
Частота : 48,0 КГц
Частота кадров : 31,250 кадров/сек (1536 spf)
Метод сжатия : С потерями
Размер потока : 120 Мбайт (1%)
Заголовок : VO Ужастик
Язык : Russian
Default : Нет
Forced : Нет

Аудио #5
Идентификатор : 6
Формат : AC-3
Формат/Информация : Audio Coding 3
Расширение режима : CM (complete main)
Параметр Endianness формата : Big
Идентификатор кодека : A_AC3
Продолжительность : 1 ч. 27 м.
Вид битрейта : Постоянный
Битрейт : 192 Кбит/сек
Каналы : 2 канала
Расположение каналов : Front: L R
Частота : 48,0 КГц
Частота кадров : 31,250 кадров/сек (1536 spf)
Метод сжатия : С потерями
Размер потока : 120 Мбайт (1%)
Заголовок : VO
Язык : Russian
Default : Нет
Forced : Нет

Аудио #6
Идентификатор : 7
Формат : AC-3
Формат/Информация : Audio Coding 3
Расширение режима : CM (complete main)
Параметр Endianness формата : Big
Идентификатор кодека : A_AC3
Продолжительность : 1 ч. 27 м.
Вид битрейта : Постоянный
Битрейт : 448 Кбит/сек
Каналы : 6 каналов
Расположение каналов : Front: L C R, Side: L R, LFE
Частота : 48,0 КГц
Частота кадров : 31,250 кадров/сек (1536 spf)
Метод сжатия : С потерями
Размер потока : 279 Мбайт (3%)
Язык : English
Default : Нет
Forced : Нет

Текст #1
Идентификатор : 8
Формат : UTF-8
Идентификатор кодека : S_TEXT/UTF8
Идентификатор кодека/Информация : UTF-8 Plain Text
Язык : English
Default : Нет
Forced : Нет

Текст #2
Идентификатор : 9
Формат : UTF-8
Идентификатор кодека : S_TEXT/UTF8
Идентификатор кодека/Информация : UTF-8 Plain Text
Заголовок : SDH
Язык : English
Default : Нет
Forced : Нет

Меню
00:00:00.000 : en:00:00:00.000
00:10:57.375 : en:00:10:57.375
00:23:19.667 : en:00:23:19.667
00:31:19.125 : en:00:31:19.125
00:43:31.833 : en:00:43:31.833
00:52:05.125 : en:00:52:05.125
01:03:48.625 : en:01:03:48.625
01:18:33.542 : en:01:18:33.542

piratbit.org



Скачать Возвращение болотной твари через торрент http://lostpix.com/img/2017-09/29/ekhx1cy4ilicys89xwskpwqsh.jpg Скачать фильм Возвращение болотной твари через торрент бесплантно в хорошем качестве Описание: Прекрасная Абигэйл приезжает в лабораторию своего отчима доктора Аркейна, чтобы узнать тайну смерти ее матери. К сожалению, ... 10 10 2
Торрент: Зарегистрирован [2019-08-18 19:35] · скачан: 5 раз
Статус: √ проверено
Размер: 8.76 GB
Как cкачать? Как скачать Возвращение болотной твари через торрент | qTorrent

28-11-2019 20:33  

Отключить всю рекламу на сайте

    Дорогой пользователь! Огромная просьба, поблагодарите релизера, оцените раздачу и оставьте свои комментарий, если Вы скачали Возвращение болотной твари через торрент бесплатно! Внесите свою лепту в развитие PiratBit!
    Комментировать посты могут только пользователи прошедшие не сложную регистрацию
    Показать сообщения:    

    Возвращение болотной твари через торрент
    Скачать бесплатно Возвращение болотной твари
    Возвращение болотной твари скачать торрент
    Возвращение болотной твари смотреть онлайн
    Cкачать фильм Возвращение болотной твари бесплатно
    Возвращение болотной твари скачать торрент в хорошем качестве
    Возвращение болотной твари смотреть онлайн бесплатно в хорошем качестве


    Вы не можете начинать темы
    Вы не можете отвечать на сообщения
    Вы не можете редактировать свои сообщения
    Вы не можете удалять свои сообщения
    Вы не можете голосовать в опросах
    Вы не можете прикреплять файлы к сообщениям
    Вы можете скачивать файлы