MEGA SALE -50% FORZA HORIZON 4 ULTIMATE+ВСЕ DLC+ОНЛАЙН всего за 599р. 299 руб. (супер цена). Внимание количество ограничено!!!

iTunes

1+1

iTunes

мы

iTunes

1

iTunes

Чернобыль

iTunes

Ральф против интернета

Лицензия

ПШазам

Лицензия

Игра престолов

Лицензия

30
pack

ВАЖНО

!!Акция!!

Alien_RageХит недели

RePack

Resident Evil 21

ИГРА 18+

pack

RePack

Metro:Exodus

!!Акция!!

Alien_Rage

RePack

fifa19

RePack

Assassins Creed: Odyssey

RePack

NEED FOR SPEED™ PAYBACK

3 сезон

9 сезон

Бесстыжие 9 сезон

Все сериалы

все сериалы на PB.wtf

RePack

FAR CRY 5
Ребята, катастрофически не хватает 7730р. для оплаты серверов за АВГУСТ (всвязи с блокировками трафик упал в 3 раза), 1-2р., выручайте.
  

Годзилла 2: Король монстров / Godzilla: King of the Monsters (Майкл Догерти) [2019, фантастика, фэнтези, боевик, приключения, BDRip 720p] DUB (rus,ukr) [iTunes] +MVO [HDRezka Studio] piratbit.org

Годзилла 2: Король монстров через торрент piratbit.org

Раздают: 22 [ 175 KB/s ]
Размер: 5.25 GB | Добавлен: 1 мес. назад | Торрент скачан:386 раз
Скачать  

19-08-2019 01:42 Годзилла 2: Король монстров Скачать торрент  

Годзилла 2: Король монстров / Godzilla: King of the Monsters
Год выпуска: 2019
Страна: США, Япония
Жанр: фантастика, фэнтези, боевик, приключения
Продолжительность: 02:11:42
Перевод:

#1: Дублированный | iTunes
#2: Профессиональный многоголосый | HDRezka Studio

Субтитры: Русские (Forced, full), украинские (Forced), английские

Режиссер: Майкл Догерти

rating

В ролях: Кайл Чандлер, Вера Фармига, Милли Бобби Браун, Кэн Ватанабэ, Чжан Цзыи, Брэдли Уитфорд, Салли Хокинс, Чарльз Дэнс, Томас Миддлдитч, Аиша Хайндс

Описание: История рассказывает о героических усилиях криптозоологического агентства «Монарх» по сдерживанию гигантских монстров. В этот раз против могучего Годзиллы выступают Мотра, Родан и ультимативный кайдзю - трёхголовый монстр Кинг Гидора. Когда эти древние суперхищники, со временем превратившиеся в полузабытые мифы, восстают снова, чтобы сойтись в схватке, человечеству остаётся отойти в сторонку и постараться не погибнуть.

Качество: BDRip 720p
Формат: MKV

Видео: MPEG-4 AVC, 1280x534, 4328 Kbit/s, 23.976 fps
Аудио#1: 48 kHz, AC3, 5.1, 384 Kbps | iTunes | RUS |
Аудио#2: 48 kHz, AC3, 2.0, 192 Kbps | HDRezka Studio | RUS |
Аудио#3: 48 kHz, AC3, 2.0, 160 Kbps | iTunes | UKR |
Аудио#4: 48 kHz, AC3, 5.1, 640 Kbps | Оригинал | ENG |
скриншот  скриншот  скриншот  скриншот  скриншот  

General
Unique ID : 199547306699065345471717137203986085995 (0x961F69CFF3DFC15E59B1D920A26AB86B)
Complete name : D:Video111Godzilla.King.of.the.Monsters.2019.BDRip.720p.seleZen.mkv
Format : Matroska
Format version : Version 4
File size : 5.25 GiB
Duration : 2 h 11 min
Overall bit rate : 5 707 kb/s
Movie name : Godzilla King of the Monsters 2019 from селезень
Encoded date : UTC 2019-08-19 01:12:26
Writing application : mkvmerge v22.0.0 ('At The End Of The World') 64-bit
Writing library : libebml v1.3.5 + libmatroska v1.4.8

Video
ID : 1
Format : AVC
Format/Info : Advanced Video Codec
Format profile : High@L4.1
Format settings : CABAC / 12 Ref Frames
Format settings, CABAC : Yes
Format settings, Reference : 12 frames
Codec ID : V_MPEG4/ISO/AVC
Duration : 2 h 11 min
Bit rate : 4 328 kb/s
Width : 1 280 pixels
Height : 534 pixels
Display aspect ratio : 2.40:1
Frame rate mode : Constant
Frame rate : 23.976 (24000/1001) FPS
Color space : YUV
Chroma subsampling : 4:2:0
Bit depth : 8 bits
Scan type : Progressive
Bits/(Pixel*Frame) : 0.264
Stream size : 3.98 GiB (76%)
Title : seleZen
Writing library : x264 core 148 r2705kMod 3f5ed56
Encoding settings : cabac=1 / ref=12 / deblock=1:-2:-2 / analyse=0x3:0x133 / me=umh / subme=10 / psy=1 / fade_compensate=0.00 / psy_rd=1.20:0.04 / mixed_ref=1 / me_range=24 / chroma_me=1 / trellis=2 / 8x8dct=1 / cqm=0 / deadzone=21,11 / fast_pskip=0 / chroma_qp_offset=-3 / threads=12 / lookahead_threads=2 / sliced_threads=0 / nr=0 / decimate=0 / interlaced=0 / bluray_compat=0 / constrained_intra=0 / fgo=0 / bframes=8 / b_pyramid=2 / b_adapt=2 / b_bias=0 / direct=3 / weightb=1 / open_gop=0 / weightp=2 / keyint=240 / keyint_min=23 / scenecut=40 / intra_refresh=0 / rc_lookahead=50 / rc=2pass / mbtree=0 / bitrate=4328 / ratetol=1.0 / qcomp=0.60 / qpmin=0 / qpmax=51 / qpstep=4 / cplxblur=20.0 / qblur=0.5 / vbv_maxrate=50000 / vbv_bufsize=62500 / nal_hrd=none / filler=0 / ip_ratio=1.40 / pb_ratio=1.30 / aq=3:0.80
Language : English
Default : Yes
Forced : No

Audio #1
ID : 2
Format : AC-3
Format/Info : Audio Coding 3
Commercial name : Dolby Digital
Codec ID : A_AC3
Duration : 2 h 11 min
Bit rate mode : Constant
Bit rate : 384 kb/s
Channel(s) : 6 channels
Channel layout : L R C LFE Ls Rs
Sampling rate : 48.0 kHz
Frame rate : 31.250 FPS (1536 SPF)
Bit depth : 16 bits
Compression mode : Lossy
Stream size : 362 MiB (7%)
Title : Dub [iTunes]
Language : Russian
Service kind : Complete Main
Default : Yes
Forced : Yes

Audio #2
ID : 3
Format : AC-3
Format/Info : Audio Coding 3
Commercial name : Dolby Digital
Codec ID : A_AC3
Duration : 2 h 11 min
Bit rate mode : Constant
Bit rate : 192 kb/s
Channel(s) : 2 channels
Channel layout : L R
Sampling rate : 48.0 kHz
Frame rate : 31.250 FPS (1536 SPF)
Bit depth : 16 bits
Compression mode : Lossy
Stream size : 181 MiB (3%)
Title : MVO [HDRezka Studio]
Language : Russian
Service kind : Complete Main
Default : No
Forced : No

Audio #3
ID : 4
Format : AC-3
Format/Info : Audio Coding 3
Commercial name : Dolby Digital
Codec ID : A_AC3
Duration : 2 h 11 min
Bit rate mode : Constant
Bit rate : 160 kb/s
Channel(s) : 2 channels
Channel layout : L R
Sampling rate : 48.0 kHz
Frame rate : 31.250 FPS (1536 SPF)
Bit depth : 16 bits
Compression mode : Lossy
Stream size : 151 MiB (3%)
Title : Dub [iTunes]
Language : Ukrainian
Service kind : Complete Main
Default : No
Forced : No

Audio #4
ID : 5
Format : AC-3
Format/Info : Audio Coding 3
Commercial name : Dolby Digital
Codec ID : A_AC3
Duration : 2 h 11 min
Bit rate mode : Constant
Bit rate : 640 kb/s
Channel(s) : 6 channels
Channel layout : L R C LFE Ls Rs
Sampling rate : 48.0 kHz
Frame rate : 31.250 FPS (1536 SPF)
Bit depth : 16 bits
Compression mode : Lossy
Stream size : 603 MiB (11%)
Title : Original
Language : English
Service kind : Complete Main
Default : No
Forced : No

Text #1
ID : 6
Format : UTF-8
Codec ID : S_TEXT/UTF8
Codec ID/Info : UTF-8 Plain Text
Duration : 2 h 8 min
Bit rate : 1 b/s
Count of elements : 24
Stream size : 1.42 KiB (0%)
Title : Forced
Language : Russian
Default : Yes
Forced : Yes

Text #2
ID : 7
Format : UTF-8
Codec ID : S_TEXT/UTF8
Codec ID/Info : UTF-8 Plain Text
Duration : 2 h 10 min
Bit rate : 77 b/s
Count of elements : 1372
Stream size : 74.2 KiB (0%)
Title : Full
Language : Russian
Default : No
Forced : No

Text #3
ID : 8
Format : UTF-8
Codec ID : S_TEXT/UTF8
Codec ID/Info : UTF-8 Plain Text
Duration : 2 h 9 min
Bit rate : 5 b/s
Count of elements : 73
Stream size : 4.92 KiB (0%)
Title : Forced
Language : Ukrainian
Default : No
Forced : No

Text #4
ID : 9
Format : UTF-8
Codec ID : S_TEXT/UTF8
Codec ID/Info : UTF-8 Plain Text
Duration : 2 h 10 min
Bit rate : 42 b/s
Count of elements : 1482
Stream size : 40.9 KiB (0%)
Title : Full
Language : English
Default : No
Forced : No

Text #5
ID : 10
Format : UTF-8
Codec ID : S_TEXT/UTF8
Codec ID/Info : UTF-8 Plain Text
Duration : 2 h 11 min
Bit rate : 51 b/s
Count of elements : 1857
Stream size : 49.7 KiB (0%)
Title : SDH
Language : English
Default : No
Forced : No

Menu
00:00:00.000 : en:00:00:00.000
00:10:53.903 : en:00:10:53.903
00:18:06.836 : en:00:18:06.836
00:30:27.325 : en:00:30:27.325
00:45:18.633 : en:00:45:18.633
00:54:11.039 : en:00:54:11.039
01:05:41.646 : en:01:05:41.646
01:09:31.584 : en:01:09:31.584
01:19:31.308 : en:01:19:31.308
01:30:06.234 : en:01:30:06.234
01:38:36.869 : en:01:38:36.869
01:49:58.884 : en:01:49:58.884
01:59:28.828 : en:01:59:28.828

piratbit.org



Скачать Годзилла 2: Король монстров через торрент https://img15.lostpic.net/2019/08/13/a0701e8440dc0c6383d282b1452820a3.jpg Скачать фильм Годзилла 2: Король монстров через торрент бесплантно в хорошем качестве Описание: История рассказывает о героических усилиях криптозоологического агентства «Монарх» по сдерживанию гигантских монстров. В этот раз ... 9.8 10 15
Info! Золотая раздача, скачанное не засчитывается.
Торрент: Зарегистрирован [2019-08-19 01:42] · скачан: 386 раз
Статус: √ проверено
Размер: 5.25 GB
Как cкачать? Как скачать Годзилла 2: Король монстров через торрент | qTorrent

% Раздел Тема Автор DL S | L
Фильмы (Blu-ray, BD-Remux, HDDVD) [ 45.16 GB ] Годзилла 2: Король монстров / Godzilla: King of the Monsters [2019 Blu-ray EUR 1080p] DUB [] bober100 Скачать
3 | 0
Ultra HD (UHD: 2K, 4K, 8K) — видео сверхвысокой чёткости [ 64.08 GB ] Годзилла 2: Король монстров / Godzilla: King of the Monsters [2019 UHD Blu-ray 2160p] [Dolby Vision] DUB [] bober100 Скачать
1 | 0
Ultra HD (UHD: 2K, 4K, 8K) — видео сверхвысокой чёткости [ 56.65 GB ] Годзилла 2: Король монстров / Godzilla: King of the Monsters [2019 UHD BDRemux 2160p] DUB [] +MVO [HDRezka Studio] bober100 Скачать
3 | 0
R.G. Resident & PiratVoice - Фильмы, Видео [ 466 MB ] Годзилла 2: Король монстров / Godzilla: King of the Monsters [2019 HDRip | КПК ] Cтрана Скачать
1 | 0
3D Фильмы [ 14.06 GB ] Годзилла 2: Король монстров 3Д / Godzilla: King of the Monsters 3D [2019 BDRip 1080p] [Half OverUnder] DUB [] bober100 Скачать
3 | 0
Фильмы [HD 720p, 1080p] (Хороший звук DUB, MVO) [ 10.61 GB ] Годзилла 2: Король монстров / Godzilla: King of the Monsters [2019 BDRip-HEVC 1080p ] DUB [] bober100 Скачать
9 | 0
Ultra HD (UHD: 2K, 4K, 8K) — видео сверхвысокой чёткости [ 38.89 GB ] Годзилла 2: Король монстров / Godzilla: King of the Monsters [2019 UHD BDRip 2160p] [SDR] DUB [] +MVO [HDRezka Studio] bober100 Скачать
2 | 0


>> Регистрируемся здесь <<






Отзывы и комментарии о схеме читаем и пишем здесь: ---> Отзывы и комментарии о схеме

Новые благодарочки в телеграм довольных пользователей:
скриншот   скриншот   скриншот   скриншот   скриншот

19-08-2019 11:38 Годзилла 2: Король монстров Скачать торрент  

нормальный фильмецpiratbit.org



19-08-2019 15:46 Годзилла 2: Король монстров Скачать торрент  

Фильмы про Годзиллу скатываются в форсаж...piratbit.org



    Дорогой пользователь! Огромная просьба, поблагодарите релизера, оцените раздачу и оставьте свои комментарий, если Вы скачали Годзилла 2: Король монстров через торрент бесплатно! Внесите свою лепту в развитие PiratBit!
    Комментировать посты могут только пользователи прошедшие не сложную регистрацию
    Показать сообщения:    

    Годзилла 2: Король монстров через торрент
    Скачать бесплатно Годзилла 2: Король монстров
    Годзилла 2: Король монстров скачать торрент
    Годзилла 2: Король монстров смотреть онлайн
    Cкачать фильм Годзилла 2: Король монстров бесплатно
    Годзилла 2: Король монстров скачать торрент в хорошем качестве
    Годзилла 2: Король монстров смотреть онлайн бесплатно в хорошем качестве


    Вы не можете начинать темы
    Вы не можете отвечать на сообщения
    Вы не можете редактировать свои сообщения
    Вы не можете удалять свои сообщения
    Вы не можете голосовать в опросах
    Вы не можете прикреплять файлы к сообщениям
    Вы можете скачивать файлы