Доктор Стрэндж

Лицензия

Добыча

Дубляж

Уэнсдэй

1 сезон

Тор

Дубляж

В эфире

Дубляж

Там, где раки поют

MVO

Властелин колец

1 сезон

Deluxe

pack

Рекомендуем

30

Пиратка

ВАЖНО

ВАЖНО

Ghostwire

Пиратка

jed

RePack

nioh2

RePack

RDR2

RePack

NEED FOR SPEED™ PAYBACK

RePack

скачать торрент

Кинопоиск HD

Острые козырьки 6 сезон

6 сезон

FAR CRY 6

RePack

скачать торрент

Лицензия

скачать торрент

MVO

1

1 сезон

скачать торрент

1 сезон

скачать торрент

Лицензия

  

Проект «Итака» / Project Ithaca (Николас Хемфрис) [2019, фантастика, триллер, BDRip] Дубляж [iTunes]

Проект «Итака» через торрент piratbit.org

Размер: 1.46 GB | Добавлен: 3 года 3 мес. назад | Торрент скачан:390 раз
Смотреть онлайн | Скачать   

19-08-2019 15:45 Проект «Итака» Скачать торрент  

Проект «Итака» / Project Ithaca
Год выпуска: 2019
Страна: Канада
Жанр: фантастика, триллер
Продолжительность: 01:25:20
Перевод: Дублированный | iTunes
Субтитры: отсутствуют

Режиссер: Николас Хемфрис

rating

В ролях: Джеймс Гэллэндерс, Дераг Кэмпбелл, Дэниэл Фазерс, Алекс Вудс, Каролина Рейно, Конима Паркинсон-Джонс, Грег Эллванд, Софи Урецки, Джастин Джеймс Ремейкис, Аеша Мансур

Описание: Группа незнакомых между собой людей просыпается на борту инопланетного космического корабля. Поодиночке они умрут, но если объединятся, то у них есть шанс найти дорогу домой.

Качество: BDRip
Формат: AVI

Видео: 720x304 (2.37:1), 23.976 fps, XviD build 73 ~2049 kbps avg, 0.39 bit/pixel
Аудио: 48 kHz, AC3 Dolby Digital, 3/2 (L,C,R,l,r) + LFE ch, ~384 kbps
скриншот  скриншот  скриншот  скриншот  

Формат: AVI
Формат/Информация: Audio Video Interleave
Размер файла: 1,46 Гбайт
Продолжительность: 1 ч. 25 м.
Общий поток: 2442 Кбит/сек
Название фильма: Проект «Итака»_2019_BDRip
Программа кодирования: VirtualDubMod 1.5.10.3 | (build 2550/release)
Авторское право: порошков

Видео
Идентификатор: 0
Формат: MPEG-4 Visual
Профиль формата: Advanced Simple@L5
Настройки формата: BVOP1 / Custom Matrix
Параметр BVOP формата: 1
Параметр QPel формата: Нет
Параметр GMC формата: Без точки перехода
Параметр матрицы формата: Выборочная
Идентификатор кодека: XVID
Идентификатор кодека/Подсказка: XviD
Продолжительность: 1 ч. 25 м.
Битрейт: 2049 Кбит/сек
Ширина: 720 пикселей
Высота: 304 пикселя
Соотношение сторон: 2,35:1
Частота кадров: 23,976 (24000/1001) кадра/сек
Цветовое пространство: YUV
Субдискретизация насыщенности: 4:2:0
Битовая глубина: 8 бит
Тип развёртки: Прогрессивная
Метод сжатия: С потерями
Бит/(Пиксели*Кадры): 0.390
Размер потока: 1,22 Гбайт (84%)
Библиотека кодирования: XviD 73

Аудио
Идентификатор: 1
Формат: AC-3
Формат/Информация: Audio Coding 3
Коммерческое название: Dolby Digital
Идентификатор кодека: 2000
Продолжительность: 1 ч. 25 м.
Вид битрейта: Постоянный
Битрейт: 384 Кбит/сек
Каналы: 6 каналов
ChannelLayout: L R C LFE Ls Rs
Частота: 48,0 КГц
Частота кадров: 31,250 кадров/сек (1536 SPF)
Битовая глубина: 16 бит
Метод сжатия: С потерями
Размер потока: 234 Мбайт (16%)
Выравнивание: Разделение по промежуткам
Продолжительность промежутка: 42 мс. (1,00 видеокадр)
Время предзагрузки промежутка: 500 мс.




Скачать Проект «Итака» через торрент https://i5-imageban-ru.translate.goog/out/2019/08/19/de290e5a9a2035c1ebf2adf152b44a5c.png Скачать, смотреть онлайн Проект «Итака» бесплантно в хорошем качестве Описание: Группа незнакомых между собой людей просыпается на борту инопланетного космического корабля. Поодиночке они умрут, но если ... 9.9 10 14
Торрент: Зарегистрирован [2019-08-19 15:45] · скачан: 390 раз
Статус: √ проверено
Размер: 1.46 GB
Как cкачать? Как скачать Проект «Итака» через торрент | UTorrent

% Раздел Тема Автор DL S | L
Фильмы 2019-2020 [DVDrip, WEB-DLRip, HDrip] (DUB, MVO) [ 698 MB ] Проект «Итака» / Project Ithaca | iTunes" | HDRip, Дубляж "iTunes" coc900 Скачать
1 | 0
Фильмы (Blu-ray, BD-Remux, HDDVD) [ 19.78 GB ] Проект «Итака» / Project Ithaca | iTunes | BD Remux 1080p bober100 Скачать
1 | 0
Фильмы 2019-2020 [DVDrip, WEB-DLRip, HDrip] (DUB, MVO) [ 1.66 GB ] Проект «Итака» / Project Ithaca | iTunes | BDRip-AVC Enigma2010 Скачать
1 | 0
T Фильмы [HD 720p, 1080p] (Хороший звук DUB, MVO) [ 6.78 GB ] Проект «Итака» / Project Ithaca | iTunes | 1080p bober100 Скачать
1 | 0
Фильмы [HD 720p, 1080p] (Хороший звук DUB, MVO) [ 4.11 GB ] Проект «Итака» / Project Ithaca | iTunes | 720p bober100 Скачать
1 | 0

28-11-2019 20:33  


Отключить вcю реклaмy на сайте, в т.ч. и в плеере онлайн просмотра!

19-08-2019 19:04 Проект «Итака» Скачать торрент  

По заказу ТВ 3 ?



24-08-2019 16:56 Проект «Итака» Скачать торрент  

LNR писал(а):

По заказу ТВ 3 ?

именно!



26-08-2019 19:12 Проект «Итака» Скачать торрент  

Редкая хрень!!!



    Дорогой пользователь! Огромная просьба, поблагодарите релизера, оцените раздачу и оставьте свои комментарий, если Вы скачали Проект «Итака» через торрент бесплатно!!
    Комментировать посты могут только пользователи прошедшие не сложную регистрацию
    Показать сообщения:    


    Проект «Итака» через торрент
    Скачать бесплатно Проект «Итака»
    Проект «Итака» скачать торрент
    Проект «Итака» смотреть онлайн
    Cкачать фильм Проект «Итака» бесплатно
    Проект «Итака» скачать торрент в хорошем качестве
    Проект «Итака» смотреть онлайн бесплатно в хорошем качестве
    Вы не можете начинать темы
    Вы не можете отвечать на сообщения
    Вы не можете редактировать свои сообщения
    Вы не можете удалять свои сообщения
    Вы не можете голосовать в опросах
    Вы не можете прикреплять файлы к сообщениям
    Вы можете скачивать файлы
    Проект «Итака» / Project Ithaca [2019, фантастика, триллер, BDRip] Дубляж [iTunes] смотреть онлайн, скачать торрент picoco.icu