Ссылка на приватное зеркало нашего сайта всего за 1$. Внимание количество ограничено!!!

2 сезон

iTunes

1 сезон

1

iTunes

iTunes

iTunes

1 сезон

RePack

30

ИГРА 18+

pack

ВАЖНО

!!Акция!!

Alien_RageХит недели

RePack

MK11
pack

Забери бонус

RePack

jed

!!Акция!!

Alien_Rage

RePack

fifa19

RePack

Assassins Creed: Odyssey

RePack

NEED FOR SPEED™ PAYBACK

4 сезон

9 сезон

Бесстыжие 9 сезон

Все сериалы

все сериалы на PB.wtf

RePack

FAR CRY 5
  

Одинокий рейнджер и город золота / The Lone Ranger and the Lost City of Gold (Лесли Селандер / Lesley Selander) [1958, боевик, приключения, вестерн, WEBRip-AVC] [Dub] (Netflix) piratbit.org

Одинокий рейнджер и город золота через торрент piratbit.org

Размер: 753 MB | Добавлен: 1 год 1 мес. назад | Торрент скачан:6 раз
Скачать  

24-08-2019 09:29 Одинокий рейнджер и город золота Скачать торрент  

Одинокий рейнджер и город золота / The Lone Ranger and the Lost City of Gold

Год выпуска: 1958
Страна: США
Жанр: боевик, приключения, вестерн
Продолжительность: 01:21:19
Перевод: Профессиональный (дублированный) Netflix
Субтитры: русские, английские
Режиссер: Лесли Селандер / Lesley Selander
В ролях: Клейтон Мур, Джей Сильверхилс, Дуглас Кеннеди, Чарльз Уоттс, Норин Нэш, Лиза Монтелл, Ральф Муди, Дин Фредерикс, Джон Мильян, Морис Хара
Описание: Краснокожий Тонто однажды спасая жизнь белому ковбою и не подозревал, что тот станет его товарищем и будет защищать индейцев от несправедливости белых американцев.
И в одной их схваток с группой бандитов, пытаясь спасти живых они узнают, что все убитые ковбоями индейцы владельцы серебряных амулетов, которые если сложить воедино представляют собой карту затерянного города золота. Но вот кто нанял этих убийц, скрывающих свои лица за ковбойскими платками и кто будет их следующей жертвой?

Одинокий рейнджер на своем серебристом коне Сильвере и его друг индеец Тонто спешат восстановить справедливость и скачут навстречу приключениям.
Сэмплrating
Качество видео: WEBRip-AVC
Формат видео: MKV
Видео: AVC, 720x540 (4:3), 25,000 fps, 1036 Kbps
Аудио 1: E-AC3, 48,0 kHz, 2 ch, 128 kbps | Дубляж
Аудио 2: E-AC3, 48,0 kHz, 2 ch, 128 kbps | English
Формат субтитров: softsub (SRT)
Общее
Полное имя : The.Lone.Ranger.and.the.Lost.City.of.Gold.1958.WEBRip-AVC.-Kyle.mkv
Формат : Matroska
Версия формата : Version 4
Размер файла : 753 Мбайт
Продолжительность : 1 ч. 21 м.
Общий поток : 1295 Кбит/сек
Дата кодирования : UTC 2019-08-23 22:52:28
Программа кодирования : mkvmerge v36.0.0 ('Is That Jazz?') 64-bit
Библиотека кодирования : libebml v1.3.9 + libmatroska v1.5.2

Видео
Идентификатор : 1
Формат : AVC
Формат/Информация : Advanced Video Codec
Профиль формата : High@L3
Настройки формата : CABAC / 3 Ref Frames
Параметр CABAC формата : Да
Параметр RefFrames формата : 3 кадра
Идентификатор кодека : V_MPEG4/ISO/AVC
Продолжительность : 1 ч. 21 м.
Битрейт : 1036 Кбит/сек
Ширина : 720 пикселей
Высота : 540 пикселей
Соотношение сторон : 4:3
Режим частоты кадров : Постоянный
Частота кадров : 23,976 (24000/1001) кадра/сек
Цветовое пространство : YUV
Субдискретизация насыщенности : 4:2:0
Битовая глубина : 8 бит
Тип развёртки : Прогрессивная
Бит/(Пиксели*Кадры) : 0.111
Размер потока : 603 Мбайт (80%)
Заголовок : English
Язык : English
Default : Да
Forced : Нет

Аудио #1
Идентификатор : 2
Формат : E-AC-3
Формат/Информация : Enhanced AC-3
Коммерческое название : Dolby Digital Plus
Идентификатор кодека : A_EAC3
Продолжительность : 1 ч. 21 м.
Вид битрейта : Постоянный
Битрейт : 128 Кбит/сек
Каналы : 2 канала
ChannelLayout : L R
Частота : 48,0 КГц
Частота кадров : 31,250 кадров/сек (1536 SPF)
Метод сжатия : С потерями
Размер потока : 74,5 Мбайт (10%)
Заголовок : Russian
Язык : Russian
ServiceKind/String : Complete Main
Default : Да
Forced : Нет

Аудио #2
Идентификатор : 3
Формат : E-AC-3
Формат/Информация : Enhanced AC-3
Коммерческое название : Dolby Digital Plus
Идентификатор кодека : A_EAC3
Продолжительность : 1 ч. 21 м.
Вид битрейта : Постоянный
Битрейт : 128 Кбит/сек
Каналы : 2 канала
ChannelLayout : L R
Частота : 48,0 КГц
Частота кадров : 31,250 кадров/сек (1536 SPF)
Метод сжатия : С потерями
Размер потока : 74,5 Мбайт (10%)
Заголовок : English
Язык : English
ServiceKind/String : Complete Main
Default : Нет
Forced : Нет

Текст #1
Идентификатор : 4
Формат : UTF-8
Идентификатор кодека : S_TEXT/UTF8
Идентификатор кодека/Информация : UTF-8 Plain Text
Продолжительность : 1 ч. 20 м.
Битрейт : 85 бит/сек
ElementCount : 903
Размер потока : 50,2 Кбайт (0%)
Заголовок : Russian
Язык : Russian
Default : Нет
Forced : Нет

Текст #2
Идентификатор : 5
Формат : UTF-8
Идентификатор кодека : S_TEXT/UTF8
Идентификатор кодека/Информация : UTF-8 Plain Text
Продолжительность : 1 ч. 20 м.
Битрейт : 63 бит/сек
ElementCount : 1024
Размер потока : 37,5 Кбайт (0%)
Заголовок : English
Язык : English
Default : Нет
Forced : Нет
скриншот  скриншот  скриншот  
piratbit.org



Скачать Одинокий рейнджер и город золота через торрент https://i86.fastpic.ru/big/2019/0824/be/1c1b317d3066e77eb2c02f462de90fbe.jpg Скачать фильм Одинокий рейнджер и город золота через торрент бесплантно в хорошем качестве Описание: Краснокожий Тонто однажды спасая жизнь белому ковбою и не подозревал, что тот станет его товарищем и будет защищать индейцев от ... 10 10 2
Торрент: Зарегистрирован [2019-08-24 09:29] · скачан: 6 раз
Статус: √ проверено
Размер: 753 MB
Как cкачать? Как скачать Одинокий рейнджер и город золота через торрент | qTorrent

28-11-2019 20:33  

Отключить всю рекламу на сайте

    Дорогой пользователь! Огромная просьба, поблагодарите релизера, оцените раздачу и оставьте свои комментарий, если Вы скачали Одинокий рейнджер и город золота через торрент бесплатно! Внесите свою лепту в развитие PiratBit!
    Комментировать посты могут только пользователи прошедшие не сложную регистрацию
    Показать сообщения:    

    Одинокий рейнджер и город золота через торрент
    Скачать бесплатно Одинокий рейнджер и город золота
    Одинокий рейнджер и город золота скачать торрент
    Одинокий рейнджер и город золота смотреть онлайн
    Cкачать фильм Одинокий рейнджер и город золота бесплатно
    Одинокий рейнджер и город золота скачать торрент в хорошем качестве
    Одинокий рейнджер и город золота смотреть онлайн бесплатно в хорошем качестве


    Вы не можете начинать темы
    Вы не можете отвечать на сообщения
    Вы не можете редактировать свои сообщения
    Вы не можете удалять свои сообщения
    Вы не можете голосовать в опросах
    Вы не можете прикреплять файлы к сообщениям
    Вы можете скачивать файлы