новый адрес
Ссылка на приватное зеркало всего за 1$. Внимание количество ограничено!!!

iTunes

1+1

iTunes

мы

iTunes

1

iTunes

Чернобыль

iTunes

Ральф против интернета

Лицензия

ПШазам

Лицензия

Оно 2

Лицензия

30
pack

Вам бонус

ВАЖНО

!!Акция!!

Alien_RageХит недели

RePack

Resident Evil 21

ИГРА 18+

pack

RePack

jed

!!Акция!!

Alien_Rage

RePack

fifa19

RePack

Assassins Creed: Odyssey

RePack

NEED FOR SPEED™ PAYBACK

3 сезон

9 сезон

Бесстыжие 9 сезон

Все сериалы

все сериалы на PB.wtf

RePack

FAR CRY 5
Ребята, катастрофически не хватает 1900р. для оплаты серверов за Октябрь (всвязи с блокировками трафик упал в 3 раза), 1-2р., выручайте.
  

Однажды в… Голливуде / Once Upon a Time ... in Hollywood (Квентин Тарантино / Quentin Tarantino) [2019, драма, комедия, WEBRip-AVC] [AVO] (А. Дольский) piratbit.org

Однажды в… Голливуде через торрент piratbit.org

Раздают: 13 [ 470 KB/s ] Качают: 1 [ 0 KB/s ]
Размер: 1.74 GB | Добавлен: 1 д. 19 ч. назад | Торрент скачан:107 раз
Скачать  

25-08-2019 09:12 Однажды в… Голливуде Скачать торрент  

Однажды в… Голливуде / Once Upon a Time ... in Hollywood
Год выпуска: 2019
Страна: Великобритания, США, Китай
Жанр: драма, комедия
Продолжительность: 02:34:46
Перевод: Авторский (одноголосый закадровый) А. Дольский
Субтитры: вшитые (исландские)

Режиссер: Квентин Тарантино

В ролях: Майя Хоук, Остин Батлер, Марго Робби, Сидни Свини, Брэд Питт, Леонардо ДиКаприо, Маргарет Куэлли, Дакота Фаннинг, Тимоти Олифант, Аль Пачино

Описание: Фильм повествует о череде событий, произошедших в Голливуде в 1969 году, на закате его «золотого века». По сюжету, известный ТВ актер Рик Далтон и его дублер Клифф Бут пытаются найти свое место в стремительно меняющемся мире киноиндустрии.

rating

Качество: WEBRip-AVC
Формат: MKV
Видео: MPEG-4 AVC, 1100 Кбит/с, 720x300
Аудио 1: AC3, 2 ch, 256 Кбит/с - AVO
Аудио 2: AC3, 2 ch, 256 Кбит/с - ENG

Цитата:

Перевод Андрея Дольского состоялся благодаря пользователям Рутрекера и Е180:
hzdaun, eyrobot, arizonadream, maxwell_kennedy, kikoru1, User, chontvari, uchitel538, Evromaster, donlego33, kiruxa-k, your.fear.its.me, Render71, литти_07

General
Unique ID : 207839550464594434902583439568510049599 (0x9C5C70FEB94121E0A89330650C8ADD3F)
Complete name : Once.Upon.A.Time.In.Hollywood.2019.HC.HDRip.mkv
Format : Matroska
Format version : Version 4
File size : 1.74 GiB
Duration : 2 h 34 min
Overall bit rate : 1 605 kb/s
Encoded date : UTC 2019-11-20 22:44:44
Writing application : mkvmerge v7.1.0 ('Good Love') 64bit built on Jul 27 2014 13:06:55
Writing library : libebml v1.3.0 + libmatroska v1.4.1

Video
ID : 1
Format : AVC
Format/Info : Advanced Video Codec
Format profile : High@L3.1
Format settings : CABAC / 5 Ref Frames
Format settings, CABAC : Yes
Format settings, Reference fra : 5 frames
Codec ID : V_MPEG4/ISO/AVC
Duration : 2 h 34 min
Bit rate : 1 100 kb/s
Width : 720 pixels
Height : 300 pixels
Display aspect ratio : 2.40:1
Frame rate mode : Constant
Frame rate : 25.000 FPS
Color space : YUV
Chroma subsampling : 4:2:0
Bit depth : 8 bits
Scan type : Progressive
Bits/(Pixel*Frame) : 0.204
Stream size : 1.18 GiB (68%)
Writing library : x264 core 148 r2795M aaa9aa8
Encoding settings : cabac=1 / ref=5 / deblock=1:-1:-1 / analyse=0x3:0x113 / me=umh / subme=9 / psy=1 / psy_rd=1.00:0.15 / mixed_ref=1 / me_range=16 / chroma_me=1 / trellis=2 / 8x8dct=1 / cqm=0 / deadzone=21,11 / fast_pskip=1 / chroma_qp_offset=-3 / threads=24 / lookahead_threads=2 / sliced_threads=0 / nr=0 / decimate=1 / interlaced=0 / bluray_compat=0 / constrained_intra=0 / bframes=3 / b_pyramid=2 / b_adapt=2 / b_bias=0 / direct=3 / weightb=1 / open_gop=0 / weightp=2 / keyint=250 / keyint_min=25 / scenecut=40 / intra_refresh=0 / rc_lookahead=50 / rc=abr / mbtree=1 / bitrate=1100 / ratetol=1.0 / qcomp=0.60 / qpmin=0 / qpmax=69 / qpstep=4 / ip_ratio=1.40 / aq=1:1.00
Language : English
Default : Yes
Forced : No

Audio #1
ID : 2
Format : AC-3
Format/Info : Audio Coding 3
Commercial name : Dolby Digital
Codec ID : A_AC3
Duration : 2 h 33 min
Bit rate mode : Constant
Bit rate : 256 kb/s
Channel(s) : 2 channels
Channel layout : L R
Sampling rate : 48.0 kHz
Frame rate : 31.250 FPS (1536 SPF)
Compression mode : Lossy
Stream size : 281 MiB (16%)
Language : Russian
Service kind : Complete Main
Default : Yes
Forced : No

Audio #2
ID : 3
Format : AC-3
Format/Info : Audio Coding 3
Commercial name : Dolby Digital
Codec ID : A_AC3
Duration : 2 h 34 min
Bit rate mode : Constant
Bit rate : 256 kb/s
Channel(s) : 2 channels
Channel layout : L R
Sampling rate : 48.0 kHz
Frame rate : 31.250 FPS (1536 SPF)
Compression mode : Lossy
Stream size : 283 MiB (16%)
Language : English
Service kind : Complete Main
Default : No
Forced : No
скриншот   скриншот   скриншот   скриншот  
piratbit.org



Скачать Однажды в… Голливуде через торрент https://i89.fastpic.ru/big/2019/0809/1e/c5b2651f97d91e3e6893eb9d32f0841e.jpg Скачать фильм Однажды в… Голливуде через торрент бесплантно в хорошем качестве Описание: Фильм повествует о череде событий, произошедших в Голливуде в 1969 году, на закате его «золотого века». По сюжету, известный ТВ ... 9.7 10 12
Торрент: Зарегистрирован [2019-11-21 06:15] · скачан: 107 раз
Статус: T временная
Размер: 1.74 GB
Как cкачать? Как скачать Однажды в… Голливуде через торрент | qTorrent

% Раздел Тема Автор DL S | L
Фильмы с авторской озвучкой [ 7.81 GB ] Однажды в… Голливуде / Once Upon a Time ... in Hollywood [2019 WEB-DL 1080p] AVO [А. Дольский] bober100 Скачать
19 | 8
T Фильмы с украинским озвучиванием [ 1.67 GB ] Однажды в… Голливуде / Once Upon a Time ... in Hollywood [2019 WEBRip-AVC] [Ukr DUB] killermax2013 Скачать
7 | 0
T Фильмы без перевода [ 4.57 GB ] Однажды в… Голливуде / Once Upon a Time ... in Hollywood [2019 WEBRip 1080p] [ENG] killermax2013 Скачать
4 | 0
T Фильмы (мультфильмы) cо спонсором показа (Новинки AVI/MKV) [ 1.37 GB ] Однажды в… Голливуде / Once Upon a Time ... in Hollywood [2019 TS] killermax2013 Скачать
4 | 0
T Фильмы (мультфильмы) cо спонсором показа (Новинки AVI/MKV) [ 1.46 GB ] Однажды в… Голливуде / Once Upon a Time ... in Hollywood [2019 TS] MVO [КОЛОБОК] bober100 Скачать
3 | 0
T Фильмы (мультфильмы) cо спонсором показа (Новинки AVI/MKV) [ 4.4 GB ] Однажды в… Голливуде / Once Upon a Time ... in Hollywood [2019 TS 720p] MVO [КОЛОБОК] bober100 Скачать
3 | 0
T Фильмы (мультфильмы) cо спонсором показа (Новинки AVI/MKV) [ 2.18 GB ] Однажды в… Голливуде / Once Upon a Time ... in Hollywood [2019 TS] MVO [КОЛОБОК] bober100 Скачать
4 | 0


Последний раз редактировалось: killermax2013 (2019-11-21 06:16), всего редактировалось 2 раз(а)
    Дорогой пользователь! Огромная просьба, поблагодарите релизера, оцените раздачу и оставьте свои комментарий, если Вы скачали Однажды в… Голливуде через торрент бесплатно! Внесите свою лепту в развитие PiratBit!
    Комментировать посты могут только пользователи прошедшие не сложную регистрацию
    Показать сообщения:    

    Однажды в… Голливуде через торрент
    Скачать бесплатно Однажды в… Голливуде
    Однажды в… Голливуде скачать торрент
    Однажды в… Голливуде смотреть онлайн
    Cкачать фильм Однажды в… Голливуде бесплатно
    Однажды в… Голливуде скачать торрент в хорошем качестве
    Однажды в… Голливуде смотреть онлайн бесплатно в хорошем качестве


    Вы не можете начинать темы
    Вы не можете отвечать на сообщения
    Вы не можете редактировать свои сообщения
    Вы не можете удалять свои сообщения
    Вы не можете голосовать в опросах
    Вы не можете прикреплять файлы к сообщениям
    Вы можете скачивать файлы