Ссылка на приватное зеркало нашего сайта всего за 1$. Внимание количество ограничено!!!

2 сезон

iTunes

1 сезон

1

iTunes

iTunes

iTunes

1 сезон

RePack

30

ИГРА 18+

pack

ВАЖНО

!!Акция!!

Alien_RageХит недели

RePack

MK11
pack

Забери бонус

RePack

jed

!!Акция!!

Alien_Rage

RePack

fifa19

RePack

Assassins Creed: Odyssey

RePack

NEED FOR SPEED™ PAYBACK

4 сезон

9 сезон

Бесстыжие 9 сезон

Все сериалы

все сериалы на PB.wtf

RePack

FAR CRY 5
  

Бравый солдат Швейк / Dobry vojak Svejk (Карел Стеклы) [1957 г., Комедия, военный, HDRip, Дубляж] - ExKinoRay piratbit.org

Бравый солдат Швейк через торрент piratbit.org

Размер: 746 MB | Добавлен: 1 год 1 мес. назад | Торрент скачан:20 раз
Скачать  

25-08-2019 16:37 Бравый солдат Швейк Скачать торрент  

Бравый солдат Швейк / Dobry vojak SvejkГод выпуска: 1957
Страна: Чехословакия
Жанр: Комедия, военный
Продолжительность: 01:48:42
Перевод: Дубляж - киностудия "Ленфильм"
Субтитры: Отсутствуют

Режиссер: Карел Стеклы

Премьера в мире: 23 августа 1957

rating

В ролях: Рудольф Грушинский, Милош Копецкий, Франтишек Филиповский, Сватоплюк Бенеш, Эва Свободова, Божена Гавличкова, Йозеф Глиномаз, Феликс Ле Брё, Рудольф Дейл мл., Отто Лацкович, Иржи Лир, Милош Недбал, Станислав Нейманн, Виктор Очасек, Ярослав Войта, Богус Загорский, Стелла Зазворкова, Франтишек Черны, Эман Фиала

Описание: Экранизация первой части романа Ярослава Гашека «Похождения бравого солдата Швейка»...

Качество: HDRip
Формат: AVI
Видео кодек: XviD
Аудио кодек: MP3
Видео: 592x432 (1.37:1), 24.000 fps, XviD build 73 ~823 kbps avg, 0.13 bit/pixel
Аудио#1: 48 kHz, MPEG Layer 3, 2 ch, ~128.00 kbps avg
Релиз от:


General
Complete name : D:\Бравый солдат Швейк.HDRip.by ExKinoRay & Shkiper.avi
Format : AVI
Format/Info : Audio Video Interleave
File size : 746 MiB
Duration : 1 h 48 min
Overall bit rate : 960 kb/s
Writing application : VirtualDubMod 1.5.10.3 | www.virtualdub-fr.org || (build 2550/release)
Writing library : VirtualDubMod build 2550/release

Video
ID : 0
Format : MPEG-4 Visual
Format profile : Advanced Simple@L5
Format settings : BVOP1 / Custom Matrix
Format settings, BVOP : 1
Format settings, QPel : No
Format settings, GMC : No warppoints
Format settings, Matrix : Custom
Codec ID : XVID
Codec ID/Hint : XviD
Duration : 1 h 48 min
Bit rate : 823 kb/s
Width : 592 pixels
Height : 432 pixels
Display aspect ratio : 1.370
Frame rate : 24.000 FPS
Color space : YUV
Chroma subsampling : 4:2:0
Bit depth : 8 bits
Scan type : Progressive
Compression mode : Lossy
Bits/(Pixel*Frame) : 0.134
Stream size : 640 MiB (86%)
Writing library : XviD 73

Audio
ID : 1
Format : MPEG Audio
Format version : Version 1
Format profile : Layer 3
Codec ID : 55
Codec ID/Hint : MP3
Duration : 1 h 48 min
Bit rate mode : Constant
Bit rate : 128 kb/s
Channel(s) : 2 channels
Sampling rate : 48.0 kHz
Frame rate : 41.667 FPS (1152 SPF)
Compression mode : Lossy
Stream size : 99.5 MiB (13%)
Alignment : Aligned on interleaves
Interleave, duration : 42 ms (1.00 video frame)
Interleave, preload duratio : 504 ms
Writing library : LAME3.99r
Encoding settings : -m s -V 4 -q 2 -lowpass 17 -b 128

piratbit.org



Скачать Бравый солдат Швейк через торрент https://img15.lostpic.net/2019/08/25/5025c6bbcfb52cc69575fe7c0f07c334.jpg Скачать фильм Бравый солдат Швейк через торрент бесплантно в хорошем качестве Описание: Экранизация первой части романа Ярослава Гашека «Похождения бравого солдата ... 10 10 4
Info! Золотая раздача, скачанное не засчитывается.
Торрент: Зарегистрирован [2019-08-25 16:37] · скачан: 20 раз
Статус: √ проверено
Размер: 746 MB
Как cкачать? Как скачать Бравый солдат Швейк через торрент | qTorrent

28-11-2019 20:33  

Отключить всю рекламу на сайте

25-08-2019 17:01 Бравый солдат Швейк Скачать торрент  

Топик был перенесен из форума Фильмы до 2000 г. в форум Классика зарубежного кино


Enigma2010piratbit.org



    Дорогой пользователь! Огромная просьба, поблагодарите релизера, оцените раздачу и оставьте свои комментарий, если Вы скачали Бравый солдат Швейк через торрент бесплатно! Внесите свою лепту в развитие PiratBit!
    Комментировать посты могут только пользователи прошедшие не сложную регистрацию
    Показать сообщения:    

    Бравый солдат Швейк через торрент
    Скачать бесплатно Бравый солдат Швейк
    Бравый солдат Швейк скачать торрент
    Бравый солдат Швейк смотреть онлайн
    Cкачать фильм Бравый солдат Швейк бесплатно
    Бравый солдат Швейк скачать торрент в хорошем качестве
    Бравый солдат Швейк смотреть онлайн бесплатно в хорошем качестве


    Вы не можете начинать темы
    Вы не можете отвечать на сообщения
    Вы не можете редактировать свои сообщения
    Вы не можете удалять свои сообщения
    Вы не можете голосовать в опросах
    Вы не можете прикреплять файлы к сообщениям
    Вы можете скачивать файлы