2 сезон

iTunes

WEBRip

1

2 сезон

iTunes

1 сезон

1 сезон

RePack

30

Новинка

ВАЖНО

ИГРА 18+

pack

RePack

MK11
pack

Легкие деньги

RePack

jed

RePack

fifa19

RePack

RDR2

RePack

NEED FOR SPEED™ PAYBACK

4 сезон

9 сезон

Бесстыжие 9 сезон

Все сериалы

все сериалы на PB.wtf

RePack

FAR CRY 5

Anonymous, добрый день, мы не успеваем собрать деньги на оплату серверов за февраль, помогите нам пожалуйста в это трудное время. В качестве благодарности мы отключим Вам всю рекламу на сайте (укажите свой ник в строку Ваше имя)!

×
  
Magnet ссылка

Встреча одноклассников / Зустріч однокласників (Валентин Шпаков) [2019, комедия, WEB-DLRip-AVC] SUB - [Rus] +[UKR] - ExKinoRay piratbit.org

Встреча одноклассников через торрент piratbit.org

Раздают: 2 [ 0 KB/s ] Качают: 2 [ 0 KB/s ]
Размер: 1.37 GB | Добавлен: 1 год 6 мес. назад | Торрент скачан:64 раза
Скачать  

26-08-2019 22:14 Встреча одноклассников Скачать торрент  

Название: Встреча одноклассников
Оригинальное название: Зустріч однокласників
Год выхода: 2019
Жанр: Комедия
Режиссер: Валентин Шпаков

В ролях:
Валерий Харчишин, Андрей Бурым, Алексей Нагрудный и другие

Описание:
В основе сюжета история трех школьных друзей, которые встречаются, чтобы отметить 25-летие выпуска. Многие считают, что раз судьба дала шанс больше никогда не видеться со своими одноклассниками сразу после выпускного - надо этим воспользоваться. Но наши герои решают иначе и отправляются на важнейшую вечеринку в их жизни.

rating

Страна: Украина

Студия: НЛО TV, Tauras Films, Idea Production
Продолжительность: 01:26:51
Перевод: Оригинал (украинский язык)

Формат: MKV
Качество: WEB-DLRip-AVC
Видео: MPEG-4 AVC, 720x300 (2.40:1), 25.000 fps, 2060 Kbps, 0.381 bit/pixel
Аудио #01: 48 kHz, AC3, 2.0, 192 Kbps UKR
Субтитры: Русские
General
Unique ID : 195106293654330561074016656003011003089 (0x92C81AF6D2D40CC5B7DFB970A06142D1)
Complete name : F:\Vstrecha.odnoklasnikov.2019.AVC.ExKinoRay.mkv
Format : Matroska
Format version : Version 2
File size : 1.37 GiB
Duration : 1 h 26 min
Overall bit rate : 2 254 kb/s
Movie name : Встреча однокласников 2019 from ExKinoRay
Encoded date : UTC 2019-08-25 22:37:47
Writing application : mkvmerge v5.6.0 ('Kenya Kane') built on May 27 2012 16:44:04
Writing library : libebml v1.2.3 + libmatroska v1.3.0

Video
ID : 1
Format : AVC
Format/Info : Advanced Video Codec
Format profile : High@L4.1
Format settings, CABAC : Yes
Format settings, ReFrames : 10 frames
Codec ID : V_MPEG4/ISO/AVC
Duration : 1 h 26 min
Bit rate : 2 060 kb/s
Width : 720 pixels
Height : 300 pixels
Display aspect ratio : 2.40:1
Frame rate mode : Constant
Frame rate : 25.000 FPS
Color space : YUV
Chroma subsampling : 4:2:0
Bit depth : 8 bits
Scan type : Progressive
Bits/(Pixel*Frame) : 0.381
Stream size : 1.22 GiB (89%)
Title : Enigma
Writing library : x264 core 152 r2851 ba24899
Encoding settings : cabac=1 / ref=10 / deblock=1:-2:-2 / analyse=0x3:0x113 / me=umh / subme=10 / psy=1 / psy_rd=1.05:0.10 / mixed_ref=1 / me_range=32 / chroma_me=1 / trellis=2 / 8x8dct=1 / cqm=0 / deadzone=21,11 / fast_pskip=0 / chroma_qp_offset=-3 / threads=9 / lookahead_threads=1 / sliced_threads=0 / nr=0 / decimate=0 / interlaced=0 / bluray_compat=0 / constrained_intra=0 / bframes=9 / b_pyramid=2 / b_adapt=2 / b_bias=0 / direct=3 / weightb=1 / open_gop=0 / weightp=2 / keyint=250 / keyint_min=25 / scenecut=40 / intra_refresh=0 / rc=2pass / mbtree=0 / bitrate=2060 / ratetol=1.0 / qcomp=0.60 / qpmin=0 / qpmax=51 / qpstep=4 / cplxblur=20.0 / qblur=0.5 / ip_ratio=1.40 / pb_ratio=1.30 / aq=1:1.00
Default : Yes
Forced : No
Color range : Limited
Color primaries : BT.709
Transfer characteristics : BT.709
Matrix coefficients : BT.709

Audio
ID : 2
Format : AC-3
Format/Info : Audio Coding 3
Mode extension : CM (complete main)
Format settings, Endianness : Big
Codec ID : A_AC3
Duration : 1 h 26 min
Bit rate mode : Constant
Bit rate : 192 kb/s
Channel(s) : 2 channels
Channel positions : Front: L R
Sampling rate : 48.0 kHz
Frame rate : 31.250 FPS (1536 spf)
Compression mode : Lossy
Stream size : 119 MiB (9%)
Title : Original
Language : Ukrainian
Default : Yes
Forced : No


Релиз от:

Автор релиза: piratbit.org



Скачать Встреча одноклассников через торрент http://img16.lostpic.net/2019/04/06/d45db8af5e19c60c8963e500ced8c0cb.jpg Скачать фильм Встреча одноклассников через торрент бесплантно в хорошем качестве Описание:В основе сюжета история трех школьных друзей, которые встречаются, чтобы отметить 25-летие выпуска. Многие считают, что раз судьба ... 1 10 2
Info! Золотая раздача, скачанное не засчитывается.
Торрент: Зарегистрирован [2019-08-26 22:14] · скачан: 64 раз
Статус: √ проверено
Размер: 1.37 GB
Как cкачать? Как скачать Встреча одноклассников через торрент | UTorrent

28-11-2019 20:33  

Отключить всю рекламу на сайте

    Дорогой пользователь! Огромная просьба, поблагодарите релизера, оцените раздачу и оставьте свои комментарий, если Вы скачали Встреча одноклассников через торрент бесплатно! Внесите свою лепту в развитие PiratBit!
    Комментировать посты могут только пользователи прошедшие не сложную регистрацию
    Показать сообщения:    

    Встреча одноклассников через торрент
    Скачать бесплатно Встреча одноклассников
    Встреча одноклассников скачать торрент
    Встреча одноклассников смотреть онлайн
    Cкачать фильм Встреча одноклассников бесплатно
    Встреча одноклассников скачать торрент в хорошем качестве
    Встреча одноклассников смотреть онлайн бесплатно в хорошем качестве


    Вы не можете начинать темы
    Вы не можете отвечать на сообщения
    Вы не можете редактировать свои сообщения
    Вы не можете удалять свои сообщения
    Вы не можете голосовать в опросах
    Вы не можете прикреплять файлы к сообщениям
    Вы можете скачивать файлы