MEGA SALE -50% FORZA HORIZON 4 ULTIMATE+ВСЕ DLC+ОНЛАЙН всего за 599р. 299 руб. (супер цена). Внимание количество ограничено!!!

iTunes

1+1

iTunes

мы

iTunes

1

iTunes

Чернобыль

iTunes

Ральф против интернета

Лицензия

ПШазам

Лицензия

Игра престолов

Лицензия

30
pack

ВАЖНО

!!Акция!!

Alien_RageХит недели

RePack

Resident Evil 21

ИГРА 18+

pack

RePack

Metro:Exodus

!!Акция!!

Alien_Rage

RePack

fifa19

RePack

Assassins Creed: Odyssey

RePack

NEED FOR SPEED™ PAYBACK

3 сезон

9 сезон

Бесстыжие 9 сезон

Все сериалы

все сериалы на PB.wtf

RePack

FAR CRY 5
Ребята, катастрофически не хватает 7730р. для оплаты серверов за АВГУСТ (всвязи с блокировками трафик упал в 3 раза), 1-2р., выручайте.
  

Острые козырьки / Peaky Blinders / Сезон: 5 / Серии: 1-4 из 6 (Колм МакКарти, Тим Милантс, Дэвид Кэффри) [2019, драма, криминал, WEB-DL 720p] MVO [AlexFilm] piratbit.org

Острые козырьки через торрент piratbit.org

Раздают: 3 [ 24 KB/s ] Качают: 2 [ 0 KB/s ]
Размер: 6.4 GB | Добавлен: 7 д. назад | Торрент скачан:12 раз
Скачать  

28-08-2019 00:44 Острые козырьки Скачать торрент  

Острые козырьки | Peaky Blinders Год выпуска: 2019
Страна: Великобритания
Жанр: Драма, криминал
Продолжительность: ~ 00:58:00
Перевод: Профессиональный (многоголосый закадровый) | AlexFilm
Субтитры: Русские (Full |«PhysKids»|, английские (Full, SDH)

Режиссёр: Колм МакКарти, Тим Милантс, Дэвид Кэффри

В ролях: Киллиан Мёрфи, Пол Андерсон, Иддо Голдберг, Хелен МакКрори, Сэм Нил, Аннабелль Уоллис, Джо Коул, Элфи Эванс-Мис, Джек Хартли, Кевин Меткалф и др.

Описание: Британский сериал о криминальном мире Бирмингема 20-х годов прошлого века, в котором многолюдная семья Шелби стала одной из самых жестоких и влиятельных гангстерских банд послевоенного времени. Фирменным знаком группировки, промышлявшей грабежами и азартными играми, стали зашитые в козырьки лезвия.



Качество: WEB-DL 720p
Формат: MKV

Видео: AVC, 1280х640, ~2700 Kbps, 25 fps
Аудио №1: AC3, 48,0 kHz, 6 ch, 384 kbps | AlexFilm
Аудио №2: AC3, 48,0 kHz, 6 ch, 640 kbps | Original


Реклама: Отсутствует

Исходник: Peaky.Blinders.S05.720p.AMZN.WEB-DL.DD+5.1.H.264-AJP69
01. Black Tuesday / Чёрный вторник
Complete name : F:\Peaky.Blinders_s05_AlexFilm_720p\Peaky.Blinders.s05e01.WEB-DL.720p_EniaHD.mkv
Format : Matroska
Format version : Version 2
File size : 1.49 GiB
Duration : 56 min 37 s
Overall bit rate : 3 758 kb/s
Movie name : Peaky Blinders 05x01 (Black Tuesday) - release by Kastiel@EniaHD
Encoded date : UTC 2019-08-27 23:06:58
Writing application : mkvmerge v4.9.1 ('Ich will') сборка от Jul 11 2011 23:53:15
Writing library : libebml v1.2.1 + libmatroska v1.1.1

Video
ID : 1
Format : AVC
Format/Info : Advanced Video Codec
Format profile : High@L3.1
Format settings : CABAC / 4 Ref Frames
Format settings, CABAC : Yes
Format settings, Reference : 4 frames
Codec ID : V_MPEG4/ISO/AVC
Duration : 56 min 37 s
Bit rate mode : Constant
Bit rate : 2 660 kb/s
Nominal bit rate : 6 000 kb/s
Width : 1 280 pixels
Height : 640 pixels
Display aspect ratio : 2.000
Frame rate mode : Constant
Frame rate : 25.000 FPS
Color space : YUV
Chroma subsampling : 4:2:0
Bit depth : 8 bits
Scan type : Progressive
Bits/(Pixel*Frame) : 0.130
Stream size : 1.05 GiB (71%)
Default : Yes
Forced : No
Color range : Limited
Color primaries : BT.709
Transfer characteristics : BT.709
Matrix coefficients : BT.709

Audio #1
ID : 2
Format : AC-3
Format/Info : Audio Coding 3
Commercial name : Dolby Digital
Codec ID : A_AC3
Duration : 56 min 37 s
Bit rate mode : Constant
Bit rate : 384 kb/s
Channel(s) : 6 channels
Channel layout : L R C LFE Ls Rs
Sampling rate : 48.0 kHz
Frame rate : 31.250 FPS (1536 SPF)
Bit depth : 16 bits
Compression mode : Lossy
Stream size : 156 MiB (10%)
Title : DD5.1 AlexFilm
Language : Russian
Service kind : Complete Main
Default : Yes
Forced : No

Audio #2
ID : 3
Format : AC-3
Format/Info : Audio Coding 3
Commercial name : Dolby Digital
Codec ID : A_AC3
Duration : 56 min 37 s
Bit rate mode : Constant
Bit rate : 640 kb/s
Channel(s) : 6 channels
Channel layout : L R C LFE Ls Rs
Sampling rate : 48.0 kHz
Frame rate : 31.250 FPS (1536 SPF)
Bit depth : 16 bits
Compression mode : Lossy
Stream size : 259 MiB (17%)
Title : DD5.1 Original
Language : English
Service kind : Complete Main
Default : No
Forced : No

Text #1
ID : 4
Format : UTF-8
Codec ID : S_TEXT/UTF8
Codec ID/Info : UTF-8 Plain Text
Title : Full |PhysKids|
Language : Russian
Default : No
Forced : No

Text #2
ID : 5
Format : UTF-8
Codec ID : S_TEXT/UTF8
Codec ID/Info : UTF-8 Plain Text
Language : English
Default : No
Forced : No

Text #3
ID : 6
Format : UTF-8
Codec ID : S_TEXT/UTF8
Codec ID/Info : UTF-8 Plain Text
Title : SDH
Language : English
Default : No
Forced : No
При каждом добавлении создаётся новый торрент. Чтобы начать докачку новой серии, пользователям необходимо сделать следующее:
- остановить скачивание;
- удалить старый торрент у себя из клиента (старые серии удалять не надо);
- скачать новый торрент и запустить его у себя в клиенте вместо старого, при этом указать клиенту путь в старую папку, куда и должно происходить скачивание новых серий.
piratbit.org



Скачать Острые козырьки через торрент http://i80.fastpic.ru/big/2016/0507/7e/96acbbed1e32b0cd2af6b45f6d4ee57e.jpg Скачать фильм Острые козырьки через торрент бесплантно в хорошем качестве Описание: Британский сериал о криминальном мире Бирмингема 20-х годов прошлого века, в котором многолюдная семья Шелби стала одной из самых ... 10 10 3
Торрент: Зарегистрирован [2019-09-11 12:29] · скачан: 12 раз
Статус: √ проверено
Размер: 6.4 GB
Как cкачать? Как скачать Острые козырьки через торрент | qTorrent

% Раздел Тема Автор DL S | L
T Зарубежные сериалы [ 12.05 GB ] Острые козырьки / Peaky Blinders / Сезон: 5 / Серии: 1-4 из 6 [2019 HDTV 1080p] [MVO] killermax2013 Скачать
3 | 3
T Зарубежные сериалы [ 6.59 GB ] Острые козырьки / Peaky Blinders / Сезон: 5 / Серии: 1-4 из 6 [2019 WEBRip 720p] DVO [Kerob] bober100 Скачать
3 | 0
Зарубежные сериалы [ 6.4 GB ] Острые козырьки / Peaky Blinders / Сезон: 5 / Серии: 1-4 из 6 [2019 WEB-DL 720p] MVO [TVShows] bober100 Скачать
1 | 0
Зарубежные сериалы [ 13.73 GB ] Острые козырьки / Peaky Blinders / Сезон: 5 / Серии: 1-4 из 6 [2019 WEB-DL 1080p] [MVO] killermax2013 Скачать
2 | 0
Зарубежные сериалы [ 3.22 GB ] Острые козырьки / Peaky Blinders / Сезон: 5 / Серии: 1-4 из 6 [2019 WEB-DLRip] MVO [LostFilm] bober100 Скачать
1 | 0
Зарубежные сериалы [ 12.21 GB ] Острые козырьки / Peaky Blinders / Сезон: 5 / Серии: 1-4 из 6 [2019 WEB-DL 1080p] [MVO] killermax2013 Скачать
3 | 2
T Зарубежные сериалы [ 1.94 GB ] Острые козырьки / Peaky Blinders / Сезон: 5 / Серии: 1-4 из 6 [2019 WEBRip] DVO [Kerob] bober100 Скачать
1 | 0


>> Регистрируемся здесь <<






Отзывы и комментарии о схеме читаем и пишем здесь: ---> Отзывы и комментарии о схеме

Новые благодарочки в телеграм довольных пользователей:
скриншот   скриншот   скриншот   скриншот   скриншот
    Дорогой пользователь! Огромная просьба, поблагодарите релизера, оцените раздачу и оставьте свои комментарий, если Вы скачали Острые козырьки через торрент бесплатно! Внесите свою лепту в развитие PiratBit!
    Комментировать посты могут только пользователи прошедшие не сложную регистрацию
    Показать сообщения:    

    Острые козырьки через торрент
    Скачать бесплатно Острые козырьки
    Острые козырьки скачать торрент
    Острые козырьки смотреть онлайн
    Cкачать фильм Острые козырьки бесплатно
    Острые козырьки скачать торрент в хорошем качестве
    Острые козырьки смотреть онлайн бесплатно в хорошем качестве


    Вы не можете начинать темы
    Вы не можете отвечать на сообщения
    Вы не можете редактировать свои сообщения
    Вы не можете удалять свои сообщения
    Вы не можете голосовать в опросах
    Вы не можете прикреплять файлы к сообщениям
    Вы можете скачивать файлы