Лицензия

MVO

1

1 сезон

Лицензия

Лицензия

13

MVO

1 сезон

Deluxe Edition

pack

Рекомендуем

30

Repack

ВАЖНО

ВАЖНО

Ghostwire

RePack

jed

RePack

fifa19

RePack

RDR2

RePack

NEED FOR SPEED™ PAYBACK

RePack

Кинопоиск HD

 Острые козырьки 6 сезон

6 сезон

FAR CRY 6

RePack

Лицензия

MVO

1

1 сезон

1 сезон

Лицензия

  

Хроника одного дня (Витаутас Жалакявичюс) [1963, СССР, драма, SATRip-AVC от AVP Studio]

Хроника одного дня через торрент piratbit.org

Качают: 1 [ 0 KB/s ]
Размер: 1.09 GB | Добавлен: 3 года назад | Торрент скачан:20 раз
Смотреть онлайн Хроника одного дня | Скачать   

28-08-2019 07:27 Хроника одного дня Скачать торрент  

Хроника одного дня
Страна: СССР
Производство: Литовская к/ст

Жанр: драма
Год выпуска: 1963
Продолжительность: 01:17:04

Перевод: Не требуется
Cубтитры: нет
Оригинальная аудиодорожка: русский

Режиссер: Витаутас Жалакявичюс

В ролях:
Бронюс Бабкаускас, Иван Дмитриев, Альгимантас Масюлис, Эльвира Жебертавичюте, Игорь Озеров, Донатас Банионис, Эугения Шулгайте, Нийоле Викирайте, Хенрикас Паулаускас...
Об актёрах подробней

Описание:
Герои фильма — старый коммунист, скромный служащий Римша и молодой учёный Венцкус. Впервые они сталкиваются в суде, где Римша — народный заседатель, а Венцкус выступает в качестве единственного свидетеля по делу об убийстве. Свидетель не внёс ясности в дело, но от подозрений полностью освобождён. Однако Римша не понимает, почему свидетель не попытался предотвратить убийство, и убеждён в его виновности…

Исходник: DVB
Качество видео: SATRip-AVC
Формат видео: MKV

Видео: 712->760x570 (4:3), 25,000 кадров/сек, H264 ~ 1829 kbps avg, 0.180 bit/pixel
Аудио: 48 kHz, Dolby Digital AC3 2.0, 192 kbps

Раздача от:
Общее
Полное имя : Hronika.odnogo.dnya.1963.SATRip-AVC_[New-team]_by_AVP_Studio.mkv
Формат : Matroska
Версия формата : Version 2
Размер файла : 1,09 Гбайт
Продолжительность : 1 ч. 17 м.
Общий поток : 2023 Кбит/сек
Дата кодирования : UTC 2019-08-20 16:59:14
Программа кодирования : mkvmerge v6.1.0 ('Old Devil') built on Mar 4 2013 09:10:42
Библиотека кодирования : libebml v1.3.0 + libmatroska v1.4.0

Видео
Идентификатор : 1
Формат : AVC
Формат/Информация : Advanced Video Codec
Профиль формата : High@L4.1
Настройки формата : CABAC / 10 Ref Frames
Параметр CABAC формата : Да
Параметр RefFrames формата : 10 кадров
Идентификатор кодека : V_MPEG4/ISO/AVC
Продолжительность : 1 ч. 17 м.
Битрейт : 1829 Кбит/сек
Ширина : 712 пикселей
Высота : 570 пикселей
Соотношение сторон : 4:3
Режим частоты кадров : Постоянный
Частота кадров : 25,000 кадров/сек
Цветовое пространство : YUV
Субдискретизация насыщенности : 4:2:0
Битовая глубина : 8 бит
Тип развёртки : Прогрессивная
Бит/(Пиксели*Кадры) : 0.180
Размер потока : 987 Мбайт (89%)
Библиотека кодирования : x264 core 157 r2932 303c484
Настройки программы : cabac=1 / ref=10 / deblock=1:-2:-1 / analyse=0x3:0x113 / me=umh / subme=10 / psy=1 / psy_rd=1.00:0.00 / mixed_ref=1 / me_range=32 / chroma_me=1 / trellis=2 / 8x8dct=1 / cqm=0 / deadzone=21,11 / fast_pskip=1 / chroma_qp_offset=-2 / threads=6 / lookahead_threads=1 / sliced_threads=0 / nr=0 / decimate=0 / interlaced=0 / bluray_compat=0 / constrained_intra=0 / bframes=8 / b_pyramid=2 / b_adapt=2 / b_bias=0 / direct=3 / weightb=1 / open_gop=0 / weightp=2 / keyint=250 / keyint_min=25 / scenecut=40 / intra_refresh=0 / rc=2pass / mbtree=0 / bitrate=1829 / ratetol=1.0 / qcomp=0.60 / qpmin=0 / qpmax=69 / qpstep=4 / cplxblur=20.0 / qblur=0.5 / ip_ratio=1.40 / pb_ratio=1.30 / aq=1:1.00
Default : Да
Forced : Нет

Аудио
Идентификатор : 2
Формат : AC-3
Формат/Информация : Audio Coding 3
Коммерческое название : Dolby Digital
Идентификатор кодека : A_AC3
Продолжительность : 1 ч. 17 м.
Вид битрейта : Постоянный
Битрейт : 192 Кбит/сек
Каналы : 1 канал
ChannelLayout : C
Частота : 48,0 КГц
Частота кадров : 31,250 кадров/сек (1536 SPF)
Битовая глубина : 16 бит
Метод сжатия : С потерями
Размер потока : 106 Мбайт (9%)
Default : Да
Forced : Нет



Скачать Хроника одного дня через торрент https://d.radikal.ru/d11/2001/be/0c6793f64360.png Скачать, смотреть онлайн Хроника одного дня бесплантно в хорошем качестве Описание:Герои фильма — старый коммунист, скромный служащий Римша и молодой учёный Венцкус. Впервые они сталкиваются в суде, где Римша — ... 5 10 1
Торрент: Зарегистрирован [2019-08-28 07:27] · скачан: 20 раз
Статус: √ проверено
Размер: 1.09 GB
Как cкачать? Как скачать Хроника одного дня через торрент | UTorrent

% Раздел Тема Автор DL S | L
Кино СССР [ 1.09 GB ] Хроника одного дня | | SATRip от AVP Studio AVP Studio Скачать
1 | 0

28-11-2019 20:33  

Отключить вcю реклaмy на сайте

    Дорогой пользователь! Огромная просьба, поблагодарите релизера, оцените раздачу и оставьте свои комментарий, если Вы скачали Хроника одного дня через торрент бесплатно!!
    Комментировать посты могут только пользователи прошедшие не сложную регистрацию
    Показать сообщения:    


    Хроника одного дня через торрент
    Скачать бесплатно Хроника одного дня
    Хроника одного дня скачать торрент
    Хроника одного дня смотреть онлайн
    Cкачать фильм Хроника одного дня бесплатно
    Хроника одного дня скачать торрент в хорошем качестве
    Хроника одного дня смотреть онлайн бесплатно в хорошем качестве
    Вы не можете начинать темы
    Вы не можете отвечать на сообщения
    Вы не можете редактировать свои сообщения
    Вы не можете удалять свои сообщения
    Вы не можете голосовать в опросах
    Вы не можете прикреплять файлы к сообщениям
    Вы можете скачивать файлы