новый адрес
Ссылка на приватное зеркало всего за 1$. Внимание количество ограничено!!!

iTunes

1+1

iTunes

мы

iTunes

1

iTunes

Чернобыль

iTunes

Ральф против интернета

Лицензия

ПШазам

Лицензия

Оно 2

Лицензия

30
pack

Вам бонус

ВАЖНО

!!Акция!!

Alien_RageХит недели

RePack

Resident Evil 21

ИГРА 18+

pack

RePack

jed

!!Акция!!

Alien_Rage

RePack

fifa19

RePack

Assassins Creed: Odyssey

RePack

NEED FOR SPEED™ PAYBACK

3 сезон

9 сезон

Бесстыжие 9 сезон

Все сериалы

все сериалы на PB.wtf

RePack

FAR CRY 5
Ребята, катастрофически не хватает 1900р. для оплаты серверов за Октябрь (всвязи с блокировками трафик упал в 3 раза), 1-2р., выручайте.
  

Ангел мой / Angel of Mine (Ким Фаррант) [2019, триллер, драма, BDRip 720p] DUB [iTunes] piratbit.org

Ангел мой через торрент piratbit.org

Размер: 6.21 GB | Добавлен: 1 мес. 13 д. назад | Торрент скачан:56 раз
Скачать  

29-08-2019 06:42 Ангел мой Скачать торрент  

Ангел мой / Angel of Mine
Год выпуска: 2019
Страна: Австралия, США
Жанр: триллер, драма
Продолжительность: 01:38:38
Перевод: Дублированный | iTunes
Субтитры: Английские

Режиссер: Ким Фаррант

rating

В ролях: Ивонн Страховски, Люк Эванс, Нуми Рапас, Ричард Роксбург, Роб Коллинз, Финн Литтл, Рэйчел Гордон, Пип Миллер, Мирко Гриллини, Трэйси Манн

Описание: Несколько лет Лиззи не может смириться с потерей дочери, погибшей при пожаре. Но однажды она знакомится с чужой девочкой и принимает ее за своего потерянного ребенка.

Качество: BDRip 720p
Формат: MKV

Видео: MPEG-4 AVC, 1280x538, 7993 Kbit/s, 23.976 fps
Аудио #01: 48 kHz, AC3, 5.1, 384 Kbps | iTunes | RUS |
Аудио #02: 48 kHz, AC3, 5.1, 640 Kbps | Оригинал | ENG |
скриншот  скриншот  скриншот  скриншот  скриншот  

General
Unique ID : 297783967893003263901984989462136911669 (0xE0071B278EDD90D3B34B57823A807735)
Complete name : D:Video111Angel.of.Mine.2019.BDRip.720p.seleZen.mkv
Format : Matroska
Format version : Version 4
File size : 6.21 GiB
Duration : 1 h 38 min
Overall bit rate : 9 019 kb/s
Movie name : Angel of Mine 2019 from селезень
Encoded date : UTC 2019-10-09 20:17:52
Writing application : mkvmerge v22.0.0 ('At The End Of The World') 64-bit
Writing library : libebml v1.3.5 + libmatroska v1.4.8

Video
ID : 1
Format : AVC
Format/Info : Advanced Video Codec
Format profile : High@L4.1
Format settings : CABAC / 12 Ref Frames
Format settings, CABAC : Yes
Format settings, Reference : 12 frames
Codec ID : V_MPEG4/ISO/AVC
Duration : 1 h 38 min
Bit rate : 7 993 kb/s
Width : 1 280 pixels
Height : 538 pixels
Display aspect ratio : 2.40:1
Frame rate mode : Constant
Frame rate : 23.976 (24000/1001) FPS
Color space : YUV
Chroma subsampling : 4:2:0
Bit depth : 8 bits
Scan type : Progressive
Bits/(Pixel*Frame) : 0.484
Stream size : 5.51 GiB (89%)
Title : playHD
Writing library : x264 core 146 r2538 121396c
Encoding settings : cabac=1 / ref=12 / deblock=1:-3:-3 / analyse=0x3:0x133 / me=umh / subme=10 / psy=1 / psy_rd=1.00:0.00 / mixed_ref=1 / me_range=32 / chroma_me=1 / trellis=2 / 8x8dct=1 / cqm=0 / deadzone=21,11 / fast_pskip=0 / chroma_qp_offset=-2 / threads=6 / lookahead_threads=1 / sliced_threads=0 / nr=0 / decimate=0 / interlaced=0 / bluray_compat=0 / constrained_intra=0 / bframes=9 / b_pyramid=2 / b_adapt=2 / b_bias=0 / direct=3 / weightb=1 / open_gop=0 / weightp=2 / keyint=250 / keyint_min=23 / scenecut=40 / intra_refresh=0 / rc=crf / mbtree=0 / crf=14.0 / qcomp=0.60 / qpmin=0 / qpmax=69 / qpstep=4 / ip_ratio=1.30 / pb_ratio=1.20 / aq=3:0.80
Language : English
Default : Yes
Forced : No

Audio #1
ID : 2
Format : AC-3
Format/Info : Audio Coding 3
Commercial name : Dolby Digital
Codec ID : A_AC3
Duration : 1 h 38 min
Bit rate mode : Constant
Bit rate : 384 kb/s
Channel(s) : 6 channels
Channel layout : L R C LFE Ls Rs
Sampling rate : 48.0 kHz
Frame rate : 31.250 FPS (1536 SPF)
Bit depth : 16 bits
Compression mode : Lossy
Stream size : 271 MiB (4%)
Title : iTunes
Language : Russian
Service kind : Complete Main
Default : Yes
Forced : Yes

Audio #2
ID : 3
Format : AC-3
Format/Info : Audio Coding 3
Commercial name : Dolby Digital
Codec ID : A_AC3
Duration : 1 h 38 min
Bit rate mode : Constant
Bit rate : 640 kb/s
Channel(s) : 6 channels
Channel layout : L R C LFE Ls Rs
Sampling rate : 48.0 kHz
Frame rate : 31.250 FPS (1536 SPF)
Bit depth : 16 bits
Compression mode : Lossy
Stream size : 452 MiB (7%)
Title : Original
Language : English
Service kind : Complete Main
Default : No
Forced : No

Text #1
ID : 4
Format : UTF-8
Codec ID : S_TEXT/UTF8
Codec ID/Info : UTF-8 Plain Text
Duration : 1 h 32 min
Bit rate : 40 b/s
Count of elements : 954
Stream size : 27.7 KiB (0%)
Title : Full
Language : English
Default : No
Forced : No

Text #2
ID : 5
Format : UTF-8
Codec ID : S_TEXT/UTF8
Codec ID/Info : UTF-8 Plain Text
Duration : 1 h 31 min
Bit rate : 45 b/s
Count of elements : 1078
Stream size : 30.3 KiB (0%)
Title : SDH
Language : English
Default : No
Forced : No

Menu
00:00:00.000 : en:Chapter 1
00:12:43.554 : en:Chapter 2
00:26:41.182 : en:Chapter 3
00:41:32.615 : en:Chapter 4
00:53:50.769 : en:Chapter 5
01:06:20.768 : en:Chapter 6
01:19:07.743 : en:Chapter 7
01:34:11.562 : en:Chapter 8

piratbit.org



Скачать Ангел мой через торрент https://img15.lostpic.net/2019/10/09/0f3593d6d9025722cd7bd23767185f06.jpg Скачать фильм Ангел мой через торрент бесплантно в хорошем качестве Описание: Несколько лет Лиззи не может смириться с потерей дочери, погибшей при пожаре. Но однажды она знакомится с чужой девочкой и ... 10 10 5
Торрент: Зарегистрирован [2019-10-09 20:27] · скачан: 56 раз
Статус: √ проверено
Размер: 6.21 GB
Как cкачать? Как скачать Ангел мой через торрент | qTorrent

% Раздел Тема Автор DL S | L
Фильмы 2019 [DVDrip, WEB-DLRip, HDrip] (DUB, MVO) [ 1.42 GB ] Ангел мой / Angel of Mine [2019 BDRip] - Twi7ter Скачать
17 | 0
Фильмы (Blu-ray, BD-Remux, HDDVD) [ 23.41 GB ] Ангел мой / Angel of Mine [2019 BD Remux 1080p] bober100 Скачать
1 | 0
Фильмы [HD 720p, 1080p] (Хороший звук DUB, MVO) [ 8.19 GB ] Ангел мой / Angel of Mine [2019 BDRip 1080p] bober100 Скачать
3 | 0
Фильмы 2019 [DVDrip, WEB-DLRip, HDrip] (DUB, MVO) [ 1.42 GB ] Ангел мой / Angel of Mine [2019 BDRip] bober100 Скачать
3 | 0


Последний раз редактировалось: bober100 (2019-10-09 20:27), всего редактировалось 1 раз
    Дорогой пользователь! Огромная просьба, поблагодарите релизера, оцените раздачу и оставьте свои комментарий, если Вы скачали Ангел мой через торрент бесплатно! Внесите свою лепту в развитие PiratBit!
    Комментировать посты могут только пользователи прошедшие не сложную регистрацию
    Показать сообщения:    

    Ангел мой через торрент
    Скачать бесплатно Ангел мой
    Ангел мой скачать торрент
    Ангел мой смотреть онлайн
    Cкачать фильм Ангел мой бесплатно
    Ангел мой скачать торрент в хорошем качестве
    Ангел мой смотреть онлайн бесплатно в хорошем качестве


    Вы не можете начинать темы
    Вы не можете отвечать на сообщения
    Вы не можете редактировать свои сообщения
    Вы не можете удалять свои сообщения
    Вы не можете голосовать в опросах
    Вы не можете прикреплять файлы к сообщениям
    Вы можете скачивать файлы