Достать ножи: Стеклянная луковица

MVO

Добыча

Дубляж

Уэнсдэй

1 сезон

Тор

Дубляж

13 клиническая

1 сезон

Жестокая ночь

MVO

Одни из нас

1 сезон

Deluxe

pack

Рекомендуем

30

Пиратка

ВАЖНО

ВАЖНО

Ghostwire

Пиратка

jed

RePack

nioh2

RePack

RDR2

RePack

NEED FOR SPEED™ PAYBACK

RePack

скачать торрент

Кинопоиск HD

Острые козырьки 6 сезон

6 сезон

FAR CRY 6

RePack

скачать торрент

Лицензия

скачать торрент

MVO

1

1 сезон

скачать торрент

1 сезон

скачать торрент

Лицензия

  

Рэмбо IV / Rambo (Сильвестр Сталлоне) [2008, Боевик, триллер, военный, UHD BDRemux 2160p] [Dolby Vision TV] Дубляж

Рэмбо IV через торрент piratbit.org

Размер: 31.03 GB | Добавлен: 3 года 5 мес. назад | Торрент скачан:14 раз
Смотреть онлайн | Скачать | Поддержите нас   

31-08-2019 05:59 Рэмбо IV Скачать торрент  

Рэмбо IV / Rambo
Год выпуска: 2008
Страна: США, Германия
Жанр: Боевик, триллер, военный
Продолжительность: 01:31:31
Перевод: Дублированный
Субтитры: отсутствуют

Режиссер: Сильвестр Сталлоне

rating

В ролях: Сильвестр Сталлоне, Джули Бенц, Мэттью Мэрсден, Грэм МакТавиш, Рейнальдо Гальегос, Джэйк Ла Ботц, Тим Кенг, Манг Манг Хим, Пол Шульц, Камерон Пирсон, Томас Петерсон, Тони Скарберг, Джеймс Уит, Касикорн Нийомпаттана, Шалью Манрангбан, Супакорн Китсувон, Аунг Аай Ной, Кен Ховард, Аунг Тенг, Порнпоп Кампусири, Васават Панярат, Каммул Кавтеп, Сорнрам Патчимтасанакам, Ноа Джей, Кджан Саен, Аун Ланг Су, Пан Донгам, Ан Пик, Тип Тия, Ни Люнгжай, Юпин Му Пай, Моан Адисак, Сомсак Вонгса, Сурачай Муангди, Мана Сен-Ми, Тул Кхан Кхам

Описание: Вьетнамский ветеран Джон Рэмбо ведет уединенный образ жизни на окраине Бангкока. Уставший от борьбы и кровопролития, скрываясь от проблем, он селится в небольшом доме у реки и проводит дни, ремонтируя старые лодки и катера. Однако судьба вновь заставляет его взяться за оружие. Собрав отряд из пяти наемников, Рэмбо встает на защиту жителей тайской деревни и американских миссионеров, которых захватили в заложники бирманские боевики.

Качество: UHD BDRemux 2160p | Dolby Vision TV
Формат: MP4

Видео: HEVC HDR, 42.0 Мбит/сек, 3840x2160
Аудио: AC3, 6 ch, 448 Кбит/с
Данный вид релизов (контейнер MP4) предназначен для встроенного в ТВ (соответственно, с поддержкой DV) плеер.
Т.Е. Можно использовать как USB flash/HDD, так и DLNA / Plex - подобные сервисы/программы. дополнительный-внешний плеер не обязателен.

Внимание!
На моделях LG 2016 возможны сюрпризы "через раз", 2017-2018 должно идти без сюрпризов )
скриншот  скриншот  скриншот  

имя : C:\Users\Videos\rambo4.mp4
Формат : MPEG-4
Профиль формата : Base Media / Version 2
Идентификатор кодека : mp42 (mp42/dby1/isom)
Размер файла : 31,0 Гбайт
Продолжительность : 1 ч. 31 м.
Общий поток : 48,5 Мбит/сек
Дата кодирования : UTC 2019-08-30 07:21:13
Дата пометки : UTC 2019-08-30 07:21:13

Видео #1
Идентификатор : 1
Формат : HEVC
Формат/Информация : High Efficiency Video Coding
Профиль формата : Main 10@L5.1@High
HDR_Format/String : SMPTE ST 2086, HDR10 compatible
Идентификатор кодека : hev1
Идентификатор кодека/Информация : High Efficiency Video Coding
Продолжительность : 1 ч. 31 м.
Битрейт : 42,0 Мбит/сек
Ширина : 3840 пикселей
Высота : 2160 пикселей
Соотношение сторон : 16:9
Режим частоты кадров : Постоянный
Частота кадров : 23,976 (24000/1001) кадра/сек
Цветовое пространство : YUV
Субдискретизация насыщенности : 4:2:0 (Type 2)
Битовая глубина : 10 бит
Бит/(Пиксели*Кадры) : 0.211
Размер потока : 26,9 Гбайт (87%)
Default : Нет
Дата кодирования : UTC 2019-08-30 07:21:13
Дата пометки : UTC 2019-08-30 07:21:13
Цветовой диапазон : Limited
Основные цвета : BT.2020
Характеристики трансфера : PQ
Коэффициенты матрицы : BT.2020 non-constant
MasteringDisplay_ColorPrimaries : Display P3
MasteringDisplay_Luminance : min: 0.0010 cd/m2, max: 1000 cd/m2
MaxCLL : 1000 cd/m2
MaxFALL : 932 cd/m2
Codec configuration box : hvcC

Видео #2
Идентификатор : 2
Формат : HEVC
Формат/Информация : High Efficiency Video Coding
Профиль формата : Main 10@L5.1@High
HDR_Format/String : Dolby Vision, Version 1.0, dvhe.07.06, EL+RPU / SMPTE ST 2086, HDR10 compatible
Идентификатор кодека : dvhe
Идентификатор кодека/Информация : High Efficiency Video Coding with Dolby Vision
Продолжительность : 1 ч. 31 м.
Битрейт : 6075 Кбит/сек
Ширина : 1920 пикселей
Высота : 1080 пикселей
Соотношение сторон : 16:9
Режим частоты кадров : Постоянный
Частота кадров : 23,976 (24000/1001) кадра/сек
Цветовое пространство : YUV
Субдискретизация насыщенности : 4:2:0 (Type 2)
Битовая глубина : 10 бит
Бит/(Пиксели*Кадры) : 0.122
Размер потока : 3,88 Гбайт (13%)
Default : Нет
Дата кодирования : UTC 2019-08-30 07:21:13
Дата пометки : UTC 2019-08-30 07:21:13
Цветовой диапазон : Limited
Основные цвета : BT.2020
Характеристики трансфера : PQ
Коэффициенты матрицы : BT.2020 non-constant
MasteringDisplay_ColorPrimaries : Display P3
MasteringDisplay_Luminance : min: 0.0010 cd/m2, max: 1000 cd/m2
Codec configuration box : hvcC+dvcC

Аудио
Идентификатор : 3
Формат : AC-3
Формат/Информация : Audio Coding 3
Коммерческое название : Dolby Digital
Идентификатор кодека : ac-3
Продолжительность : 1 ч. 31 м.
Вид битрейта : Постоянный
Битрейт : 448 Кбит/сек
Каналы : 6 каналов
ChannelLayout : L R C LFE Ls Rs
Частота : 48,0 КГц
Частота кадров : 31,250 кадров/сек (1536 SPF)
Битовая глубина : 16 бит
Метод сжатия : С потерями
Размер потока : 293 Мбайт (1%)
ServiceKind/String : Complete Main
Default : Нет
Дата кодирования : UTC 2019-08-30 07:21:13
Дата пометки : UTC 2019-08-30 07:21:13




Скачать Рэмбо IV через торрент http://i89.fastpic.ru/big/2017/0920/69/50343e26266ea02406b8183ad5890b69.png Скачать, смотреть онлайн Рэмбо IV бесплантно в хорошем качестве Описание: Вьетнамский ветеран Джон Рэмбо ведет уединенный образ жизни на окраине Бангкока. Уставший от борьбы и кровопролития, скрываясь от ... 10 10 4
Торрент: Зарегистрирован [2019-08-31 05:59] · скачан: 14 раз
Статус: √ проверено
Размер: 31.03 GB
Как cкачать? Как скачать Рэмбо IV через торрент | UTorrent

% Раздел Тема Автор DL S | L
Фильмы [HD 720p, 1080p] (Хороший звук DUB, MVO) [ 7.95 GB ] Рэмбо IV / Rambo IV | Дубляж + Оригинал | 1080p, Дубляж + Оригинал Бумер Скачать
1 | 0

28-11-2019 20:33  


Отключить вcю реклaмy на сайте, в т.ч. и в плеере онлайн просмотра!

    Дорогой пользователь! Огромная просьба, поблагодарите релизера, оцените раздачу и оставьте свои комментарий, если Вы скачали Рэмбо IV через торрент бесплатно!!
    Комментировать посты могут только пользователи прошедшие не сложную регистрацию
    Показать сообщения:    


    Рэмбо IV через торрент
    Скачать бесплатно Рэмбо IV
    Рэмбо IV скачать торрент
    Рэмбо IV смотреть онлайн
    Cкачать фильм Рэмбо IV бесплатно
    Рэмбо IV скачать торрент в хорошем качестве
    Рэмбо IV смотреть онлайн бесплатно в хорошем качестве
    Вы не можете начинать темы
    Вы не можете отвечать на сообщения
    Вы не можете редактировать свои сообщения
    Вы не можете удалять свои сообщения
    Вы не можете голосовать в опросах
    Вы не можете прикреплять файлы к сообщениям
    Вы можете скачивать файлы
    Рэмбо IV / Rambo [2008, Боевик, триллер, военный, UHD BDRemux 2160p] [Dolby Vision TV] Дубляж смотреть онлайн, скачать торрент picoco.icu