1 сезон

3 сезон

iTunes

1

iTunes

DUB Netflix

iTunes

13

1 сезон

RePack

30

Deluxe

pack

Легкие деньги

ВАЖНО

ИГРА 18+

pack

RePack

MK11

RePack

jed

RePack

fifa19

RePack

RDR2

RePack

NEED FOR SPEED™ PAYBACK

4 сезон

9 сезон

Бесстыжие 9 сезон

Все сериалы

все сериалы на PB.wtf

RePack

FAR CRY 5

Anonymous, добрый день, мы не успеваем до 1 числа собрать деньги на оплату серверов, помогите нам пожалуйста в это трудное время. В качестве благодарности мы отключим Вам всю рекламу на сайте (укажите свой ник в строку Ваше имя)!

×
  
Magnet ссылка

Жуки / Сезон: 1 / Серии: 1-16 из 16 + Фильм о сериале (Константин Смирнов) [2019, комедия, HDTVRip] piratbit.org

Жуки через торрент piratbit.org

Раздают: 1 [ 0 KB/s ]
Размер: 4.63 GB | Добавлен: 1 год 8 мес. назад | Торрент скачан:230 раз
Скачать  

02-09-2019 21:55 Жуки Скачать торрент  

Жуки
Год выпуска: 2019
Страна: Россия
Жанр: комедия
Продолжительность: ~ 00:25:00 (Серия)
Перевод: Не требуется
Субтитры: отсутствуют

Режиссер: Константин Смирнов



В ролях: Вячеслав Чепурченко, Вадим Дубровин, Павел Комаров (II), Максим Лагашкин, Анастасия Акатова, Дмитрий Радонов, Валерий Новиков, Александр Робак, Владимир Епифанцев, Игорь Верник, Анатолий Журавлёв

Описание: Никита, Дэн и Артемий разработали уникальное приложение для смартфонов, вот-вот продадут его и осуществят все свои мечты. Но в последний момент многомиллионная сделка срывается и парней забирают в армию. Чтобы не ставить под угрозу успех своего стартапа, они выбирают альтернативную службу в глухой деревне Жуки, где будут пытаться довести свой проект до конца. Только не так просто разрабатывать приложение там, где нет даже интернета…

Качество: HDTVRip
Формат: AVI

Видео: XviD build 73, 720x400 (16:9), 25.000 fps, ~ 1400 Kbps (~ 0.195 bit/pixel)
Аудио: 48 kHz, АС3, 2/0 (L,R), ~192.00 kbps avg
скриншот  скриншот  скриншот  

скриншот  скриншот  скриншот  

General
Complete name : D:RazdachiZhuki.2019.HDTVRip.GeneralFilmZhuki.s01.e01.avi
Format : AVI
Format/Info : Audio Video Interleave
File size : 278 MiB
Duration : 24 min 18 s
Overall bit rate : 1 601 kb/s
Writing application : VirtualDubMod 1.5.10.3 | www.virtualdub-fr.org || (build 2550/release)
Writing library : VirtualDubMod build 2550/release

Video
ID : 0
Format : MPEG-4 Visual
Format profile : Advanced Simple@L5
Format settings : BVOP1 / Custom Matrix
Format settings, BVOP : 1
Format settings, QPel : No
Format settings, GMC : No warppoints
Format settings, Matrix : Custom
Codec ID : XVID
Codec ID/Hint : XviD
Duration : 24 min 18 s
Bit rate : 1 400 kb/s
Width : 720 pixels
Height : 400 pixels
Display aspect ratio : 16:9
Frame rate : 25.000 FPS
Color space : YUV
Chroma subsampling : 4:2:0
Bit depth : 8 bits
Scan type : Progressive
Compression mode : Lossy
Bits/(Pixel*Frame) : 0.194
Stream size : 243 MiB (87%)
Writing library : XviD 73

Audio
ID : 1
Format : AC-3
Format/Info : Audio Coding 3
Commercial name : Dolby Digital
Codec ID : 2000
Duration : 24 min 18 s
Bit rate mode : Constant
Bit rate : 192 kb/s
Channel(s) : 2 channels
Channel layout : L R
Sampling rate : 48.0 kHz
Frame rate : 31.250 FPS (1536 SPF)
Bit depth : 16 bits
Compression mode : Lossy
Stream size : 33.4 MiB (12%)
Alignment : Split accross interleaves
Interleave, duration : 40 ms (1.00 video frame)
Interleave, preload duratio : 500 ms
Service kind : Complete Main

Раздача ведётся путём добавления новых серий, при каждом добавлении создаётся новый торрент. Чтобы начать докачку новой серии, пользователям необходимо сделать следующее:

- Остановить скачивание.
- Удалить старый торрент у себя из клиента (старые серии удалять не надо).
- Скачать новый торрент и запустить его у себя в клиенте вместо старого, при этом указать клиенту путь в старую папку куда и должно происходить скачивание новых серий.

Ваш клиент при этом должен произвести хеширование (проверку) старой папки (если не производит сам - помогите ему сделать это), и будет докачивать только те серии которых у вас ещё нет. Старые серии при этом не удаляются, а продолжают раздаваться!
Если вы уже удалили старые серии, то предотвратить повторную закачку старых серий можно, отжав галочку в соответствующих местах при запуске нового торрента. По возможности, желательно не удалять старые серии как можно дольше, чтобы релизер не столько продолжал раздавать старые серии, а смог сконцентрироваться на новых.
piratbit.org



Скачать Жуки через торрент https://img15.lostpic.net/2019/09/02/98483352ce6c1ebdb3ad5b8982db06fc.jpg Скачать фильм Жуки через торрент бесплантно в хорошем качестве Описание: Никита, Дэн и Артемий разработали уникальное приложение для смартфонов, вот-вот продадут его и осуществят все свои мечты. Но в ... 9.9 10 28
Торрент: Зарегистрирован [2019-09-25 18:27] · скачан: 230 раз
Статус: √ проверено
Размер: 4.63 GB
Как cкачать? Как скачать Жуки через торрент | UTorrent

% Раздел Тема Автор DL S | L
TNT serials [ 12.48 GB ] Жуки / Сезон: 1 / Серии: 1-16 из 16 + Фильм о сериале [2019 WEB-DL 1080p] bober100 Скачать
3 | 0
TNT serials [ 4.83 GB ] Жуки / Сезон: 1 / Серии: 1-16 из 16 + Фильм о сериале [2019 WEBRip-AVC] bober100 Скачать
7 | 2
TNT serials [ 15.78 GB ] Жуки / Сезон: 1 / Серии: 1-16 из 16 + Фильм о сериале [2019 HDTV 1080i] bober100 Скачать
2 | 0
TNT serials [ 4.98 GB ] Жуки / Сезон: 1 / Серии: 1-16 из 16 + Фильм о сериале [2019 WEB-DLRip] bober100 Скачать
5 | 31
TNT serials [ 7.41 GB ] Жуки / Сезон: 1 / Серии: 1-16 из 16 + Фильм о сериале [2019 WEB-DL 720p] bober100 Скачать
1 | 0

28-11-2019 20:33  

Отключить всю рекламу на сайте

    Дорогой пользователь! Огромная просьба, поблагодарите релизера, оцените раздачу и оставьте свои комментарий, если Вы скачали Жуки через торрент бесплатно! Внесите свою лепту в развитие PiratBit!
    Комментировать посты могут только пользователи прошедшие не сложную регистрацию
    Показать сообщения:    

    Жуки через торрент
    Скачать бесплатно Жуки
    Жуки скачать торрент
    Жуки смотреть онлайн
    Cкачать фильм Жуки бесплатно
    Жуки скачать торрент в хорошем качестве
    Жуки смотреть онлайн бесплатно в хорошем качестве


    Вы не можете начинать темы
    Вы не можете отвечать на сообщения
    Вы не можете редактировать свои сообщения
    Вы не можете удалять свои сообщения
    Вы не можете голосовать в опросах
    Вы не можете прикреплять файлы к сообщениям
    Вы можете скачивать файлы