1 сезон

3 сезон

iTunes

1

iTunes

DUB Netflix

iTunes

13

1 сезон

RePack

30

Deluxe

pack

Легкие деньги

ВАЖНО

ИГРА 18+

pack

RePack

MK11

RePack

jed

RePack

fifa19

RePack

RDR2

RePack

NEED FOR SPEED™ PAYBACK

4 сезон

9 сезон

Бесстыжие 9 сезон

Все сериалы

все сериалы на PB.wtf

RePack

FAR CRY 5

Anonymous, добрый вечер, мы не успеваем до 1 числа собрать деньги на оплату серверов, помогите нам пожалуйста в это трудное время. В качестве благодарности мы отключим Вам всю рекламу на сайте (укажите свой ник в строку Ваше имя)!

×
  
Magnet ссылка

Жуки / Сезон: 1 / Серии: 1-16 из 16 + Фильм о сериале (Константин Смирнов) [2019, комедия, WEB-DLRip] piratbit.org

Жуки через торрент piratbit.org

Раздают: 5 [ 0 KB/s ] Качают: 23 [ 0 KB/s ]
Размер: 4.98 GB | Добавлен: 1 год 8 мес. назад | Торрент скачан:213 раз
Скачать  

03-09-2019 03:35 Жуки Скачать торрент  

Жуки
Год выпуска: 2019
Страна: Россия
Жанр: комедия
Продолжительность: ~ 00:25:00 (Серия)
Перевод: Не требуется
Субтитры: отсутствуют

Режиссер: Константин Смирнов



В ролях: Вячеслав Чепурченко, Вадим Дубровин, Павел Комаров (II), Максим Лагашкин, Анастасия Акатова, Дмитрий Радонов, Валерий Новиков, Александр Робак, Владимир Епифанцев, Игорь Верник, Анатолий Журавлёв

Описание: Никита, Дэн и Артемий разработали уникальное приложение для смартфонов, вот-вот продадут его и осуществят все свои мечты. Но в последний момент многомиллионная сделка срывается и парней забирают в армию. Чтобы не ставить под угрозу успех своего стартапа, они выбирают альтернативную службу в глухой деревне Жуки, где будут пытаться довести свой проект до конца. Только не так просто разрабатывать приложение там, где нет даже интернета…

Качество: WEB-DLRip
Формат: AVI

Видео: XviD, ~ 1500 Кбит/с, 720x400
Аудио: 48 kHz, АС3, 2/0 (L,R), ~192.00 kbps avg
скриншот  скриншот  скриншот  скриншот  

Общее
Полное имя : D:\Zhuki.2019.WEB-DLRip.25Kuzmich\Zhuki.s01e01.WEB-DLRip.25Kuzmich.avi
Формат : AVI
Формат/Информация : Audio Video Interleave
Размер файла : 300 Мбайт
Продолжительность : 25 м. 6 с.
Общий поток : 1669 Кбит/сек
Программа кодирования : VirtualDubMod 1.5.10.3 | www.virtualdub-fr.org || (build 2550/release)
Библиотека кодирования : VirtualDubMod build 2550/release

Видео
Идентификатор : 0
Формат : MPEG-4 Visual
Профиль формата : Advanced Simple@L5
Параметр BVOP формата : 1
Параметр QPel формата : Нет
Параметр GMC формата : Без точки перехода
Параметр матрицы формата : Default (MPEG)
Идентификатор кодека : XVID
Идентификатор кодека/Подсказка : XviD
Продолжительность : 25 м. 6 с.
Битрейт : 1402 Кбит/сек
Ширина : 720 пикселей
Высота : 400 пикселей
Соотношение сторон : 16:9
Частота кадров : 25,000 кадров/сек
Цветовое пространство : YUV
Субдискретизация насыщенности : 4:2:0
Битовая глубина : 8 бит
Тип развёртки : Прогрессивная
Метод сжатия : С потерями
Бит/(Пиксели*Кадры) : 0.195
Размер потока : 252 Мбайт (84%)
Библиотека кодирования : XviD 73

Аудио
Идентификатор : 1
Формат : AC-3
Формат/Информация : Audio Coding 3
Расширение режима : CM (complete main)
Параметр Endianness формата : Big
Идентификатор кодека : 2000
Продолжительность : 25 м. 6 с.
Вид битрейта : Постоянный
Битрейт : 192 Кбит/сек
Каналы : 2 канала
Расположение каналов : Front: L R
Частота : 48,0 КГц
Частота кадров : 31,250 кадров/сек (1536 spf)
Метод сжатия : С потерями
Размер потока : 34,5 Мбайт (12%)
Выравнивание : Разделение по промежуткам

Раздача ведётся путём добавления новых серий, при каждом добавлении создаётся новый торрент. Чтобы начать докачку новой серии, пользователям необходимо сделать следующее:

- Остановить скачивание.
- Удалить старый торрент у себя из клиента (старые серии удалять не надо).
- Скачать новый торрент и запустить его у себя в клиенте вместо старого, при этом указать клиенту путь в старую папку куда и должно происходить скачивание новых серий.

Ваш клиент при этом должен произвести хеширование (проверку) старой папки (если не производит сам - помогите ему сделать это), и будет докачивать только те серии которых у вас ещё нет. Старые серии при этом не удаляются, а продолжают раздаваться!
Если вы уже удалили старые серии, то предотвратить повторную закачку старых серий можно, отжав галочку в соответствующих местах при запуске нового торрента. По возможности, желательно не удалять старые серии как можно дольше, чтобы релизер не столько продолжал раздавать старые серии, а смог сконцентрироваться на новых.
piratbit.org



Скачать Жуки через торрент https://img15.lostpic.net/2019/09/02/98483352ce6c1ebdb3ad5b8982db06fc.jpg Скачать фильм Жуки через торрент бесплантно в хорошем качестве Описание: Никита, Дэн и Артемий разработали уникальное приложение для смартфонов, вот-вот продадут его и осуществят все свои мечты. Но в ... 9.9 10 16
Торрент: Зарегистрирован [2019-09-25 17:58] · скачан: 213 раз
Статус: √ проверено
Размер: 4.98 GB
Как cкачать? Как скачать Жуки через торрент | UTorrent

% Раздел Тема Автор DL S | L
TNT serials [ 12.48 GB ] Жуки / Сезон: 1 / Серии: 1-16 из 16 + Фильм о сериале [2019 WEB-DL 1080p] bober100 Скачать
3 | 0
TNT serials [ 4.83 GB ] Жуки / Сезон: 1 / Серии: 1-16 из 16 + Фильм о сериале [2019 WEBRip-AVC] bober100 Скачать
5 | 3
TNT serials [ 15.78 GB ] Жуки / Сезон: 1 / Серии: 1-16 из 16 + Фильм о сериале [2019 HDTV 1080i] bober100 Скачать
3 | 0
TNT serials [ 4.63 GB ] Жуки / Сезон: 1 / Серии: 1-16 из 16 + Фильм о сериале [2019 HDTVRip] bober100 Скачать
2 | 1
TNT serials [ 7.41 GB ] Жуки / Сезон: 1 / Серии: 1-16 из 16 + Фильм о сериале [2019 WEB-DL 720p] bober100 Скачать
3 | 1


Последний раз редактировалось: bober100 (2019-09-25 17:58), всего редактировалось 12 раз(а)

28-11-2019 20:33  

Отключить всю рекламу на сайте

03-09-2019 18:38 Жуки Скачать торрент  

во,очередную блевань с тнт подвезли piratbit.org



04-09-2019 18:35 Жуки Скачать торрент  

Артём554984 писал(а):

во,очередную блевань с тнт подвезли

а что, ещё какая то есть? кинь ссыльpiratbit.org



    Дорогой пользователь! Огромная просьба, поблагодарите релизера, оцените раздачу и оставьте свои комментарий, если Вы скачали Жуки через торрент бесплатно! Внесите свою лепту в развитие PiratBit!
    Комментировать посты могут только пользователи прошедшие не сложную регистрацию
    Показать сообщения:    

    Жуки через торрент
    Скачать бесплатно Жуки
    Жуки скачать торрент
    Жуки смотреть онлайн
    Cкачать фильм Жуки бесплатно
    Жуки скачать торрент в хорошем качестве
    Жуки смотреть онлайн бесплатно в хорошем качестве


    Вы не можете начинать темы
    Вы не можете отвечать на сообщения
    Вы не можете редактировать свои сообщения
    Вы не можете удалять свои сообщения
    Вы не можете голосовать в опросах
    Вы не можете прикреплять файлы к сообщениям
    Вы можете скачивать файлы