Доктор Стрэндж

Лицензия

Добыча

Дубляж

Уэнсдэй

1 сезон

Тор

Дубляж

В эфире

Дубляж

Там, где раки поют

MVO

Властелин колец

1 сезон

Deluxe

pack

Рекомендуем

30

Пиратка

ВАЖНО

ВАЖНО

Ghostwire

Пиратка

jed

RePack

nioh2

RePack

RDR2

RePack

NEED FOR SPEED™ PAYBACK

RePack

скачать торрент

Кинопоиск HD

Острые козырьки 6 сезон

6 сезон

FAR CRY 6

RePack

скачать торрент

Лицензия

скачать торрент

MVO

1

1 сезон

скачать торрент

1 сезон

скачать торрент

Лицензия

  

Аладдин / Aladdin (Гай Ричи) [2019 г., Мюзикл, фэнтези, мелодрама, приключения, семейный, BDRip] [Дубляж iTunes] - ExKinoRay

Аладдин через торрент piratbit.org

Размер: 767 MB | Добавлен: 3 года 3 мес. назад | Торрент скачан:115 раз
Смотреть онлайн | Скачать   

03-09-2019 07:55 Аладдин Скачать торрент  

Аладдин / Aladdin Год выпуска: 2019
Страна: США
Жанр: Мюзикл, фэнтези, мелодрама, приключения, семейный
Продолжительность: 02:07:59
Перевод: Дубляж Лицензия / iTunes
Субтитры: Русские (forced на песни) - отдельно

Режиссер: Гай Ричи

Бюджет: $183 000 000
Премьера в мире: 8 мая 2019

rating

В ролях: Мена Массуд, Наоми Скотт, Уилл Смит, Билли Магнуссен, Алан Тьюдик, Назим Педрад, Марван Кензари, Нуман Аджар, Фрэнк Уэлкер, Навид Негабан, Джордан А. Нэш, Талия Блэр, Обри Лин, Амир Бутрус, Омари Бернард, Натаниэл Эллуль, Софи Кармен-Джонс, Амед Хашими

Описание: Молодой воришка по имени Аладдин хочет стать принцем, чтобы жениться на принцессе Жасмин. Тем временем визирь Аграбы Джафар, намеревается захватить Влacть над Аграбой, а для этого он стремится заполучить волшебную лампу, хранящуюся в пещере чудес, доступ к которой разрешен лишь тому, кого называют «алмаз неограненный», и этим человеком является никто иной как сам Аладдин...

Качество: BDRip
Формат: AVI
Видео кодек: XviD
Аудио кодек: MP3
Видео: 688x288 (2.39:1), 23.976 fps, XviD build 73 ~701 kbps avg, 0.147 bit/pixel
Аудио: 48 kHz, MPEG Layer 3, 2 ch, ~128.00 kbps avg
Релиз от: exkinoray
* Роль Джафара мечтал исполнить сэр Патрик Стюарт. Когда-то актёр отверг предложение поработать в анимационном фильме компании Walt Disney Pictures «Аладдин» (1992), о чём с тех пор искренне жалеет.
* Помимо Наоми Скотт на роль Жасмин претендовала Тара Сутариа.
* На роль Джафара хотели пригласить Тома Харди.




http://multi-up.com/1240337


General
Complete name : D:\Аладдин BDRip by ExKinoRay & Shkiper.avi
Format : AVI
Format/Info : Audio Video Interleave
File size : 767 MiB
Duration : 2 h 7 min
Overall bit rate : 838 kb/s
Writing application : VirtualDubMod 1.5.10.3 | www.virtualdub-fr.org || (build 2550/release)
Writing library : VirtualDubMod build 2550/release

Video
ID : 0
Format : MPEG-4 Visual
Format profile : Advanced Simple@L5
Format settings : BVOP1 / Custom Matrix
Format settings, BVOP : 1
Format settings, QPel : No
Format settings, GMC : No warppoints
Format settings, Matrix : Custom
Codec ID : XVID
Codec ID/Hint : XviD
Duration : 2 h 7 min
Bit rate : 701 kb/s
Width : 688 pixels
Height : 288 pixels
Display aspect ratio : 2.40:1
Frame rate : 23.976 (24000/1001) FPS
Color space : YUV
Chroma subsampling : 4:2:0
Bit depth : 8 bits
Scan type : Progressive
Compression mode : Lossy
Bits/(Pixel*Frame) : 0.147
Stream size : 641 MiB (84%)
Writing library : XviD 73

Audio
ID : 1
Format : MPEG Audio
Format version : Version 1
Format profile : Layer 3
Codec ID : 55
Codec ID/Hint : MP3
Duration : 2 h 7 min
Bit rate mode : Constant
Bit rate : 128 kb/s
Channel(s) : 2 channels
Sampling rate : 48.0 kHz
Frame rate : 41.667 FPS (1152 SPF)
Compression mode : Lossy
Stream size : 117 MiB (15%)
Alignment : Aligned on interleaves
Interleave, duration : 42 ms (1.00 video frame)
Interleave, preload duratio : 504 ms
Writing library : LAME3.99r
Encoding settings : -m s -V 4 -q 2 -lowpass 17 -b 128




Скачать Аладдин через торрент https://img15.lostpic.net/2019/09/03/3e15f2d19df39114b55f1ea95ba58b41.jpg Скачать, смотреть онлайн Аладдин бесплантно в хорошем качестве Описание: Молодой воришка по имени Аладдин хочет стать принцем, чтобы жениться на принцессе Жасмин. Тем временем визирь Аграбы Джафар, ... 10 10 4
Info! Золотая раздача, скачанное не засчитывается.
Торрент: Зарегистрирован [2019-09-03 07:55] · скачан: 115 раз
Статус: √ проверено
Размер: 767 MB
Как cкачать? Как скачать Аладдин через торрент | UTorrent

% Раздел Тема Автор DL S | L
T Фильмы 2019-2020 [DVDrip, WEB-DLRip, HDrip] (DUB, MVO) [ 1.45 GB ] Аладдин / Aladdin | HDRezka Studio | HDRip-AVC Enigma2010 Скачать
1 | 0

28-11-2019 20:33  


Отключить вcю реклaмy на сайте, в т.ч. и в плеере онлайн просмотра!

04-09-2019 02:21 Аладдин Скачать торрент  

    Дорогой пользователь! Огромная просьба, поблагодарите релизера, оцените раздачу и оставьте свои комментарий, если Вы скачали Аладдин через торрент бесплатно!!
    Комментировать посты могут только пользователи прошедшие не сложную регистрацию
    Показать сообщения:    


    Аладдин через торрент
    Скачать бесплатно Аладдин
    Аладдин скачать торрент
    Аладдин смотреть онлайн
    Cкачать фильм Аладдин бесплатно
    Аладдин скачать торрент в хорошем качестве
    Аладдин смотреть онлайн бесплатно в хорошем качестве
    Вы не можете начинать темы
    Вы не можете отвечать на сообщения
    Вы не можете редактировать свои сообщения
    Вы не можете удалять свои сообщения
    Вы не можете голосовать в опросах
    Вы не можете прикреплять файлы к сообщениям
    Вы можете скачивать файлы
    Аладдин / Aladdin [2019 г., Мюзикл, фэнтези, мелодрама, приключения, семейный, BDRip] [Дубляж iTunes] - ExKinoRay смотреть онлайн, скачать торрент picoco.icu