1 сезон

3 сезон

iTunes

1

iTunes

DUB Netflix

iTunes

13

1 сезон

RePack

30

Deluxe

pack

Легкие деньги

ВАЖНО

ИГРА 18+

pack

RePack

MK11

RePack

jed

RePack

fifa19

RePack

RDR2

RePack

NEED FOR SPEED™ PAYBACK

4 сезон

9 сезон

Бесстыжие 9 сезон

Все сериалы

все сериалы на PB.wtf

RePack

FAR CRY 5

Anonymous, добрый вечер, мы не успеваем до 1 числа собрать деньги на оплату серверов, помогите нам пожалуйста в это трудное время. В качестве благодарности мы отключим Вам всю рекламу на сайте (укажите свой ник в строку Ваше имя)!

×
  
Magnet ссылка

Жуки / Сезон: 1 / Серии: 1-16 из 16 + Фильм о сериале (Константин Смирнов) [2019, комедия, WEB-DL 1080p] piratbit.org

Жуки через торрент piratbit.org

Раздают: 1 [ 0.2 KB/s ]
Размер: 12.48 GB | Добавлен: 1 год 8 мес. назад | Торрент скачан:340 раз
Скачать  

03-09-2019 18:07 Жуки Скачать торрент  

Жуки
Год выпуска: 2019
Страна: Россия
Жанр: комедия
Продолжительность: ~ 00:25:00 (Серия)
Перевод: Не требуется
Субтитры: отсутствуют

Режиссер: Константин Смирнов



В ролях: Вячеслав Чепурченко, Вадим Дубровин, Павел Комаров (II), Максим Лагашкин, Анастасия Акатова, Дмитрий Радонов, Валерий Новиков, Александр Робак, Владимир Епифанцев, Игорь Верник, Анатолий Журавлёв

Описание: Никита, Дэн и Артемий разработали уникальное приложение для смартфонов, вот-вот продадут его и осуществят все свои мечты. Но в последний момент многомиллионная сделка срывается и парней забирают в армию. Чтобы не ставить под угрозу успех своего стартапа, они выбирают альтернативную службу в глухой деревне Жуки, где будут пытаться довести свой проект до конца. Только не так просто разрабатывать приложение там, где нет даже интернета…

Качество: WEB-DL 1080p
Формат: MKV

Видео: MPEG-4 AVC, ~ 5000 Кбит/с, 1920x1080, 25 кадр/с
Аудио: 48 kHz, АС3, 2/0 (L,R), ~192.00 kbps avg
скриншот  скриншот  скриншот  скриншот  

General
Unique ID: 208566939863395263575435563916436056142 (0x9CE8880FAD51C7C3B3C3022DF722284E)
Complete name: C:Zhuki.e01.2019.WEB-DL.(1080p).Getty.mkv
Format: Matroska
File size: 932 MiB
Duration: 25mn 6s
Overall bit rate: 5 192 Kbps
Movie name: Zhuki.e01.2019.WEB-DL.(1080p).Getty
Encoded date: UTC 2019-09-02 17:05:30
Writing application: mkvmerge v7.8.0 ('River Man') 32bit built on Mar 27 2015 16:18:02
Writing library: libebml v1.3.1 + libmatroska v1.4.2

Video
ID: 1
Format: AVC
Format/Info: Advanced Video Codec
Format profile: Baseline@L4.0
Format settings, CABAC: No
Format settings, ReFrames: 4 frames
Codec ID: V_MPEG4/ISO/AVC
Duration: 25mn 6s
Bit rate mode: Constant
Bit rate: 5 000 Kbps
Width: 1 920 pixels
Height: 1 080 pixels
Display aspect ratio: 16:9
Frame rate: 25.000 fps
Standard: PAL
Color space: YUV
Chroma subsampling: 4:2:0
Bit depth: 8 bits
Scan type: Progressive
Bits/(Pixel*Frame): 0.096
Stream size: 879 MiB (94%)
Color primaries: BT.709-5, BT.1361, IEC 61966-2-4, SMPTE RP177
Transfer characteristics: BT.709-5, BT.1361
Matrix coefficients: BT.709-5, BT.1361, IEC 61966-2-4 709, SMPTE RP177

Audio
ID: 2
Format: AC-3
Format/Info: Audio Coding 3
Mode extension: CM (complete main)
Codec ID: A_AC3
Duration: 25mn 6s
Bit rate mode: Constant
Bit rate: 192 Kbps
Channel(s): 2 channels
Channel positions: Front: L R
Sampling rate: 48.0 KHz
Bit depth: 16 bits
Compression mode: Lossy
Stream size: 34.5 MiB (4%)

Раздача ведётся путём добавления новых серий, при каждом добавлении создаётся новый торрент. Чтобы начать докачку новой серии, пользователям необходимо сделать следующее:

- Остановить скачивание.
- Удалить старый торрент у себя из клиента (старые серии удалять не надо).
- Скачать новый торрент и запустить его у себя в клиенте вместо старого, при этом указать клиенту путь в старую папку куда и должно происходить скачивание новых серий.

Ваш клиент при этом должен произвести хеширование (проверку) старой папки (если не производит сам - помогите ему сделать это), и будет докачивать только те серии которых у вас ещё нет. Старые серии при этом не удаляются, а продолжают раздаваться!
Если вы уже удалили старые серии, то предотвратить повторную закачку старых серий можно, отжав галочку в соответствующих местах при запуске нового торрента. По возможности, желательно не удалять старые серии как можно дольше, чтобы релизер не столько продолжал раздавать старые серии, а смог сконцентрироваться на новых.
piratbit.org



Скачать Жуки через торрент https://i87.fastpic.ru/big/2019/0902/cc/5129b1c5ee8706400abc10a1b714f6cc.jpg Скачать фильм Жуки через торрент бесплантно в хорошем качестве Описание: Никита, Дэн и Артемий разработали уникальное приложение для смартфонов, вот-вот продадут его и осуществят все свои мечты. Но в ... 10 10 19
Торрент: Зарегистрирован [2019-09-25 20:19] · скачан: 340 раз
Статус: √ проверено
Размер: 12.48 GB
Как cкачать? Как скачать Жуки через торрент | UTorrent

% Раздел Тема Автор DL S | L
TNT serials [ 4.83 GB ] Жуки / Сезон: 1 / Серии: 1-16 из 16 + Фильм о сериале [2019 WEBRip-AVC] bober100 Скачать
6 | 1
TNT serials [ 15.78 GB ] Жуки / Сезон: 1 / Серии: 1-16 из 16 + Фильм о сериале [2019 HDTV 1080i] bober100 Скачать
3 | 0
TNT serials [ 4.98 GB ] Жуки / Сезон: 1 / Серии: 1-16 из 16 + Фильм о сериале [2019 WEB-DLRip] bober100 Скачать
3 | 24
TNT serials [ 4.63 GB ] Жуки / Сезон: 1 / Серии: 1-16 из 16 + Фильм о сериале [2019 HDTVRip] bober100 Скачать
2 | 2
TNT serials [ 7.41 GB ] Жуки / Сезон: 1 / Серии: 1-16 из 16 + Фильм о сериале [2019 WEB-DL 720p] bober100 Скачать
3 | 1


Последний раз редактировалось: bober100 (2019-09-26 03:01), всего редактировалось 8 раз(а)

28-11-2019 20:33  

Отключить всю рекламу на сайте

14-09-2019 17:11 Жуки Скачать торрент  

Прикольный сериал,семейный) piratbit.org



07-04-2021 18:23 Жуки Скачать торрент  

bober100, Здорова!уже второй сезон на тнт показывать начали,когда сюда зальёте?piratbit.org



    Дорогой пользователь! Огромная просьба, поблагодарите релизера, оцените раздачу и оставьте свои комментарий, если Вы скачали Жуки через торрент бесплатно! Внесите свою лепту в развитие PiratBit!
    Комментировать посты могут только пользователи прошедшие не сложную регистрацию
    Показать сообщения:    

    Жуки через торрент
    Скачать бесплатно Жуки
    Жуки скачать торрент
    Жуки смотреть онлайн
    Cкачать фильм Жуки бесплатно
    Жуки скачать торрент в хорошем качестве
    Жуки смотреть онлайн бесплатно в хорошем качестве


    Вы не можете начинать темы
    Вы не можете отвечать на сообщения
    Вы не можете редактировать свои сообщения
    Вы не можете удалять свои сообщения
    Вы не можете голосовать в опросах
    Вы не можете прикреплять файлы к сообщениям
    Вы можете скачивать файлы