2 сезон

iTunes

WEBRip

1

2 сезон

iTunes

1 сезон

1 сезон

RePack

30

Новинка

ВАЖНО

ИГРА 18+

pack

RePack

MK11
pack

Легкие деньги

RePack

jed

RePack

fifa19

RePack

RDR2

RePack

NEED FOR SPEED™ PAYBACK

4 сезон

9 сезон

Бесстыжие 9 сезон

Все сериалы

все сериалы на PB.wtf

RePack

FAR CRY 5

Anonymous, доброй ночи, мы не успеваем собрать деньги на оплату серверов за февраль, помогите нам пожалуйста в это трудное время. В качестве благодарности мы отключим Вам всю рекламу на сайте (укажите свой ник в строку Ваше имя)!

×
  
Magnet ссылка

Подводная одиссея / Морськi пригоди / SeaQuest DSV / Сезон: 2 / Серии 1-22 из 22 (Стивен Робман) [1994-1995 г., фантастика, боевик, приключения, семейный, DVDRip] [Ukr DVO] piratbit.org

Подводная одиссея через торрент piratbit.org

Размер: 8.49 GB | Добавлен: 1 год 5 мес. назад | Торрент скачан:4 раза
Скачать  

04-09-2019 08:17 Подводная одиссея Скачать торрент  

Подводная одиссея / Морськi пригоди / SeaQuest DSV
Год выпуска: 1994-1995
Страна: США
Жанр: фантастика, боевик, приключения, семейный
Продолжительность: 22 х ~ 00:45:00
Перевод: Украинский (профессиональный, двухголосный)

Режиссер: Стивен Робман

В ролях: Рой Шайдер, Джонатан Брэндис, Дон Франклин, Тед Рэйми, Марко Санчез, Питер ДеЛуис, Майкл ДеЛуис, Кэти Эвисон, Эдвард Керр, Фрэнк Уэлкер


Освоение океана и его колонизация к середине XXI века уже была завершена и даже в самых, казалось бы, неприступных местах образовались заводы и предприятия. Как и в обычном мире, с развитием социальных отношений начался и рост преступности в глубинах океана. В связи с этим создается организация Объединенных Океанов Земли, на вооружении которой и находится экспериментальная боевая субмарина «Сиквест». По решению командования Организации Объединённых Океанов, капитаном «Сиквеста» должен стать Натан Бриджер.



Качество: DVDRip
Формат: AVI
Видео кодек: XviD
Аудио кодек: MP3
Видео: 720x544 (1.32:1), 25.000 fps, XviD ~1300 kbps avg
Аудио: 48 kHz, MPEG Layer 3, 2 ch, ~128.00 kbps avg [UKR]
Аудио: 48 kHz, MPEG Layer 3, 2 ch, ~128.00 kbps avg (Eng)
General
Complete name : E:\SeaQuest-II.1994-1995.XviD.DVDRip.[ukr.eng]-conty9\SeaQuest-2.01.Daggers.(Part.one).1994.XviD.DVDRip.[ukr.eng]_conty9.avi
Format : AVI
Format/Info : Audio Video Interleave
File size : 411 MiB
Duration : 43 min 18 s
Overall bit rate : 1 327 kb/s
Writing application : VirtualDubModRus 1.5.10.2 (build 2542/release)
Writing library : VirtualDubMod build 2542/release

Video
ID : 0
Format : MPEG-4 Visual
Format profile : Advanced Simple@L5
Format settings : BVOP1 / Custom Matrix
Format settings, BVOP : 1
Format settings, QPel : No
Format settings, GMC : No warppoints
Format settings, Matrix : Custom
Codec ID : XVID
Codec ID/Hint : XviD
Duration : 43 min 18 s
Bit rate : 1 058 kb/s
Width : 720 pixels
Height : 544 pixels
Display aspect ratio : 4:3
Frame rate : 25.000 FPS
Color space : YUV
Chroma subsampling : 4:2:0
Bit depth : 8 bits
Scan type : Progressive
Compression mode : Lossy
Bits/(Pixel*Frame) : 0.108
Stream size : 328 MiB (80%)
Writing library : XviD 1.2.0.dev47 (UTC 2006-11-01)

Audio #1
ID : 1
Format : MPEG Audio
Format version : Version 1
Format profile : Layer 3
Format settings : Joint stereo / MS Stereo
Mode : Joint stereo
Mode extension : MS Stereo
Codec ID : 55
Codec ID/Hint : MP3
Duration : 43 min 18 s
Bit rate mode : Constant
Bit rate : 128 kb/s
Channel(s) : 2 channels
Sampling rate : 48.0 kHz
Compression mode : Lossy
Stream size : 39.6 MiB (10%)
Alignment : Aligned on interleaves
Interleave, duration : 40 ms (1.00 video frame)
Interleave, preload duratio : 504 ms

Audio #2
ID : 2
Format : MPEG Audio
Format version : Version 1
Format profile : Layer 3
Format settings : Joint stereo
Mode : Joint stereo
Codec ID : 55
Codec ID/Hint : MP3
Duration : 42 min 45 s
Bit rate mode : Constant
Bit rate : 128 kb/s
Channel(s) : 2 channels
Sampling rate : 48.0 kHz
Compression mode : Lossy
Stream size : 39.1 MiB (10%)
Alignment : Split accross interleaves
Interleave, duration : 41 ms (1.01 video frame)
Interleave, preload duratio : 500 ms
скриншот   скриншот   скриншот   скриншот  
piratbit.org



Скачать Подводная одиссея через торрент http://i59.fastpic.ru/big/2015/0318/c3/cd80c7ded03f406a5922cd2d782aedc3.jpg Скачать фильм Подводная одиссея через торрент бесплантно в хорошем качестве В ролях: Рой Шайдер, Джонатан Брэндис, Дон Франклин, Тед Рэйми, Марко Санчез, Питер ДеЛуис, Майкл ДеЛуис, Кэти Эвисон, Эдвард Керр, Фрэнк ... 10 10 1
Торрент: Зарегистрирован [2019-09-04 08:17] · скачан: 4 раз
Статус: √ проверено
Размер: 8.49 GB
Как cкачать? Как скачать Подводная одиссея через торрент | UTorrent

28-11-2019 20:33  

Отключить всю рекламу на сайте

    Дорогой пользователь! Огромная просьба, поблагодарите релизера, оцените раздачу и оставьте свои комментарий, если Вы скачали Подводная одиссея через торрент бесплатно! Внесите свою лепту в развитие PiratBit!
    Комментировать посты могут только пользователи прошедшие не сложную регистрацию
    Показать сообщения:    

    Подводная одиссея через торрент
    Скачать бесплатно Подводная одиссея
    Подводная одиссея скачать торрент
    Подводная одиссея смотреть онлайн
    Cкачать фильм Подводная одиссея бесплатно
    Подводная одиссея скачать торрент в хорошем качестве
    Подводная одиссея смотреть онлайн бесплатно в хорошем качестве


    Вы не можете начинать темы
    Вы не можете отвечать на сообщения
    Вы не можете редактировать свои сообщения
    Вы не можете удалять свои сообщения
    Вы не можете голосовать в опросах
    Вы не можете прикреплять файлы к сообщениям
    Вы можете скачивать файлы