Доктор Стрэндж

Лицензия

Добыча

Дубляж

Дом дракона

1 сезон

Тор

Дубляж

В эфире

Дубляж

Там, где раки поют

MVO

Властелин колец

1 сезон

Deluxe

pack

Рекомендуем

30

Пиратка

ВАЖНО

ВАЖНО

Ghostwire

Пиратка

jed

RePack

nioh2

RePack

RDR2

RePack

NEED FOR SPEED™ PAYBACK

RePack

скачать торрент

Кинопоиск HD

Острые козырьки 6 сезон

6 сезон

FAR CRY 6

RePack

скачать торрент

Лицензия

скачать торрент

MVO

1

1 сезон

скачать торрент

1 сезон

скачать торрент

Лицензия

  

Отпетые мошенницы / The Hustle (Крис Эддисон) [2019 г., Комедия, криминал, BDRip] [Дубляж iTunes] - ExKinoRay

Отпетые мошенницы через торрент piratbit.org

Размер: 745 MB | Добавлен: 3 года 2 мес. назад | Торрент скачан:236 раз
Смотреть онлайн | Скачать   

04-09-2019 17:18 Отпетые мошенницы Скачать торрент  

Отпетые мошенницы
The Hustle
Год выпуска: 2019
Страна: США
Жанр: Комедия, криминал
Продолжительность: 01:33:58
Перевод: Дубляж iTunes
Субтитры: Русские (форсированные) - отдельно

Режиссер: Крис Эддисон

Премьера в мире: 8 мая 2019

rating

В ролях: Энн Хэтэуэй, Ребел Уилсон, Алекс Шарп, Ингрид Оливер, Эмма Дейвис, Дин Норрис, Тимоти С. Саймонс, Дуги МакМикин, Эшли МакГуайр, Каспер Кристенсен, Элуиз Ловелл Андерсон, Филип Десмюль, Жарро Антуан, Николас Вудесон, Селин Абрахамс, Раффаэлло Дегруттола, Гай Уоррен-Томас, Мина Райанн

Описание: Как стать успешной мошенницей? Всегда будь во всеоружии: высокие каблуки, яркая помада и главное — утягивающее белье. Будь готова расплакаться в любой момент. Ни один мужчина не устоит перед женскими слезами. Бери все, что «плохо лежит» и хорошо блестит. За каждым миллионом может скрываться миллиард. Не откажи себе в удовольствии проверить....

Доп. информация: Внимание: 41 секунд в начале с рассинхроном (заставка фильма). Просьба не обращать внимание дальше всё нормально

Качество: BDRip
Формат: AVI
Видео кодек: XviD
Аудио кодек: MP3
Видео: 688x288 (2.39:1), 23.976 fps, XviD build 73 ~972 kbps avg, 0.20 bit/pixel
Аудио#1: 48 kHz, MP3, 2 ch, ~128.00 kbps avg
Релиз от: exkinoray VK релиз-группы






General
Complete name : D:\Отпетые мошенницы.2019.BDRip by ExKinoRay & Shkiper.avi
Format : AVI
Format/Info : Audio Video Interleave
File size : 745 MiB
Duration : 1 h 33 min
Overall bit rate : 1 109 kb/s
Writing application : VirtualDubMod 1.5.10.3 | www.virtualdub-fr.org || (build 2550/release)
Writing library : VirtualDubMod build 2550/release

Video
ID : 0
Format : MPEG-4 Visual
Format profile : Advanced Simple@L5
Format settings : BVOP1 / Custom Matrix
Format settings, BVOP : 1
Format settings, QPel : No
Format settings, GMC : No warppoints
Format settings, Matrix : Custom
Codec ID : XVID
Codec ID/Hint : XviD
Duration : 1 h 33 min
Bit rate : 972 kb/s
Width : 688 pixels
Height : 288 pixels
Display aspect ratio : 2.40:1
Frame rate : 23.976 (24000/1001) FPS
Original frame rate : 23.976 (23976/1000) FPS
Color space : YUV
Chroma subsampling : 4:2:0
Bit depth : 8 bits
Scan type : Progressive
Compression mode : Lossy
Bits/(Pixel*Frame) : 0.205
Stream size : 653 MiB (88%)
Writing library : XviD 73

Audio
ID : 1
Format : MPEG Audio
Format version : Version 1
Format profile : Layer 3
Codec ID : 55
Codec ID/Hint : MP3
Duration : 1 h 33 min
Bit rate mode : Constant
Bit rate : 128 kb/s
Channel(s) : 2 channels
Sampling rate : 48.0 kHz
Frame rate : 41.667 FPS (1152 SPF)
Compression mode : Lossy
Stream size : 86.0 MiB (12%)
Alignment : Aligned on interleaves
Interleave, duration : 42 ms (1.00 video frame)
Interleave, preload duratio : 504 ms
Writing library : LAME3.99r
Encoding settings : -m s -V 4 -q 2 -lowpass 17 -b 128




Скачать Отпетые мошенницы через торрент https://img16.lostpic.net/2019/09/04/e0b4a8bba781237cfcb23d127054f4b1.jpg Скачать, смотреть онлайн Отпетые мошенницы бесплантно в хорошем качестве Описание: Как стать успешной мошенницей? Всегда будь во всеоружии: высокие каблуки, яркая помада и главное — утягивающее белье. Будь готова ... 10 10 2
Info! Золотая раздача, скачанное не засчитывается.
Торрент: Зарегистрирован [2019-09-04 17:18] · скачан: 236 раз
Статус: √ проверено
Размер: 745 MB
Как cкачать? Как скачать Отпетые мошенницы через торрент | UTorrent

28-11-2019 20:33  


Отключить вcю реклaмy на сайте, в т.ч. и в плеере онлайн просмотра!

05-09-2019 11:29 Отпетые мошенницы Скачать торрент  

    Дорогой пользователь! Огромная просьба, поблагодарите релизера, оцените раздачу и оставьте свои комментарий, если Вы скачали Отпетые мошенницы через торрент бесплатно!!
    Комментировать посты могут только пользователи прошедшие не сложную регистрацию
    Показать сообщения:    


    Отпетые мошенницы через торрент
    Скачать бесплатно Отпетые мошенницы
    Отпетые мошенницы скачать торрент
    Отпетые мошенницы смотреть онлайн
    Cкачать фильм Отпетые мошенницы бесплатно
    Отпетые мошенницы скачать торрент в хорошем качестве
    Отпетые мошенницы смотреть онлайн бесплатно в хорошем качестве
    Вы не можете начинать темы
    Вы не можете отвечать на сообщения
    Вы не можете редактировать свои сообщения
    Вы не можете удалять свои сообщения
    Вы не можете голосовать в опросах
    Вы не можете прикреплять файлы к сообщениям
    Вы можете скачивать файлы
    Отпетые мошенницы / The Hustle [2019 г., Комедия, криминал, BDRip] [Дубляж iTunes] - ExKinoRay смотреть онлайн, скачать торрент picoco.icu