Достать ножи: Стеклянная луковица

MVO

Добыча

Дубляж

Уэнсдэй

1 сезон

Тор

Дубляж

13 клиническая

1 сезон

Жестокая ночь

MVO

Одни из нас

1 сезон

Deluxe

pack

Рекомендуем

30

Пиратка

ВАЖНО

ВАЖНО

Ghostwire

Пиратка

jed

RePack

nioh2

RePack

RDR2

RePack

NEED FOR SPEED™ PAYBACK

RePack

скачать торрент

Кинопоиск HD

Острые козырьки 6 сезон

6 сезон

FAR CRY 6

RePack

скачать торрент

Лицензия

скачать торрент

MVO

1

1 сезон

скачать торрент

1 сезон

скачать торрент

Лицензия

  

Мертвые не умирают / The Dead Don't Die (Джим Джармуш) [2019, ужасы, фэнтези, комедия, UHD WEB-DL 2160p] Дубляж [iTunes]

Мертвые не умирают через торрент piratbit.org

Размер: 17.34 GB | Добавлен: 3 года 4 мес. назад | Торрент скачан:98 раз
Смотреть онлайн | Скачать | Поддержите нас   

05-09-2019 00:35 Мертвые не умирают Скачать торрент  

Мертвые не умирают / The Dead Don't Die
Год выпуска: 2019
Страна: США, Швеция
Жанр: ужасы, фэнтези, комедия
Продолжительность: 01:44:28
Перевод: Дублированный | iTunes
Субтитры: русские (форс.), английские (полные, SDH)

Режиссер: Джим Джармуш

rating

В ролях: Адам Драйвер, Билл Мюррей, Хлоя Севиньи, Тильда Суинтон, Стив Бушеми, Селена Гомес, RZA, Алисса Мария Апп, Карл Арчилези, Моника Эйрс

Описание: В маленьком американском городке что-то пошло не так. День наступает ночью, домашние животные убегают в лес, по радио играет одна и та же песня. Ученые, как обычно, не могут ничего толком объяснить. Хотя даже обывателю давно понятно, что это - предвестники зомби-апокалипсиса. И жители города как никогда готовы побороться за свою плоть!

Качество: UHD WEB-DL 2160p
Формат: MKV

Видео: HEVC/H.265 HDR, 3840x2160, ~22,7 Мbps, 23.976 fps
Аудио#1: русский, AC3, 5.1 ch, 48 kHz, 384 kbps | iTunes
Аудио#2: английский, E-AC3, 5.1 ch, 48 kHz, 640 kbps | оригинал
скриншот  скриншот  скриншот  скриншот  

Общее
Уникальный идентификатор : 274201888072632837065505246075195777054 (0xCE495CDA366D29C8DEFE847DFDB8601E)
Полное имя : The Dead Dont Die.2019.HDR.2160p.mkv
Формат : Matroska
Версия формата : Version 4
Размер файла : 17,3 Гбайт
Продолжительность : 1 ч. 44 м.
Общий поток : 23,8 Мбит/сек
Дата кодирования : UTC 2019-09-04 20:43:25
Программа кодирования : mkvmerge v23.0.0 ('The Bride Said No') 64-bit
Библиотека кодирования : libebml v1.3.6 + libmatroska v1.4.9

Видео
Идентификатор : 1
Формат : HEVC
Формат/Информация : High Efficiency Video Coding
Профиль формата : Main 10@L5@High
HDR_Format : SMPTE ST 2086, HDR10 compatible
Идентификатор кодека : V_MPEGH/ISO/HEVC
Продолжительность : 1 ч. 44 м.
Битрейт : 22,7 Мбит/сек
Ширина : 3840 пикселей
Высота : 2160 пикселей
Соотношение сторон : 16:9
Режим частоты кадров : Постоянный
Частота кадров : 23,976 (24000/1001) кадра/сек
Цветовое пространство : YUV
Субдискретизация насыщенности : 4:2:0 (Type 2)
Битовая глубина : 10 бит
Бит/(Пиксели*Кадры) : 0.114
Размер потока : 16,6 Гбайт (96%)
Язык : English
Default : Да
Forced : Нет
Цветовой диапазон : Limited
Основные цвета : BT.2020
Характеристики трансфера : PQ
Коэффициенты матрицы : BT.2020 non-constant
MasteringDisplay_ColorPrimaries : BT.2020
MasteringDisplay_Luminance : min: 0.0050 cd/m2, max: 1000 cd/m2
MaxCLL : 1258 cd/m2
MaxFALL : 143 cd/m2

Аудио #1
Идентификатор : 2
Формат : AC-3
Формат/Информация : Audio Coding 3
Коммерческое название : Dolby Digital
Идентификатор кодека : A_AC3
Продолжительность : 1 ч. 44 м.
Вид битрейта : Постоянный
Битрейт : 384 Кбит/сек
Каналы : 6 каналов
ChannelLayout : L R C LFE Ls Rs
Частота : 48,0 КГц
Частота кадров : 31,250 кадров/сек (1536 SPF)
Битовая глубина : 16 бит
Метод сжатия : С потерями
Размер потока : 287 Мбайт (2%)
Заголовок : Дубляж | iTunes
Язык : Russian
ServiceKind : Complete Main
Default : Да
Forced : Нет

Аудио #2
Идентификатор : 3
Формат : E-AC-3
Формат/Информация : Enhanced AC-3
Коммерческое название : Dolby Digital Plus
Идентификатор кодека : A_EAC3
Продолжительность : 1 ч. 44 м.
Вид битрейта : Постоянный
Битрейт : 640 Кбит/сек
Каналы : 6 каналов
ChannelLayout : L R C LFE Ls Rs
Частота : 48,0 КГц
Частота кадров : 31,250 кадров/сек (1536 SPF)
Метод сжатия : С потерями
Размер потока : 478 Мбайт (3%)
Язык : English
ServiceKind : Complete Main
Default : Нет
Forced : Нет

Текст #1
Идентификатор : 4
Формат : UTF-8
Идентификатор кодека : S_TEXT/UTF8
Идентификатор кодека/Информация : UTF-8 Plain Text
Продолжительность : 1 ч. 18 м.
Битрейт : 0 бит/сек
ElementCount : 10
Размер потока : 396 байт (0%)
Заголовок : Forced
Язык : Russian
Default : Да
Forced : Нет

Текст #2
Идентификатор : 5
Формат : UTF-8
Идентификатор кодека : S_TEXT/UTF8
Идентификатор кодека/Информация : UTF-8 Plain Text
Продолжительность : 1 ч. 37 м.
Битрейт : 40 бит/сек
ElementCount : 1164
Размер потока : 29,0 Кбайт (0%)
Заголовок : Full
Язык : English
Default : Нет
Forced : Нет

Текст #3
Идентификатор : 6
Формат : UTF-8
Идентификатор кодека : S_TEXT/UTF8
Идентификатор кодека/Информация : UTF-8 Plain Text
Продолжительность : 1 ч. 44 м.
Битрейт : 52 бит/сек
ElementCount : 1550
Размер потока : 40,3 Кбайт (0%)
Заголовок : SDH
Язык : English
Default : Нет
Forced : Нет

Меню
00:00:00.000 : :Chapter 01
00:05:01.384 : :Chapter 02
00:10:04.437 : :Chapter 03
00:17:04.148 : :Chapter 04
00:22:28.847 : :Chapter 05
00:28:04.724 : :Chapter 06
00:31:36.269 : :Chapter 07
00:37:56.649 : :Chapter 08
00:43:22.641 : :Chapter 09
00:50:53.050 : :Chapter 10
00:57:04.504 : :Chapter 11
01:01:16.964 : :Chapter 12
01:06:41.580 : :Chapter 13
01:09:20.823 : :Chapter 14
01:14:47.774 : :Chapter 15
01:18:47.681 : :Chapter 16
01:23:50.442 : :Chapter 17
01:28:10.201 : :Chapter 18
01:33:15.798 : :Chapter 19
01:39:11.487 : :Chapter 20




Скачать Мертвые не умирают через торрент http://b.radikal.ru/b16/1909/25/23475b56cff2.jpg Скачать, смотреть онлайн Мертвые не умирают бесплантно в хорошем качестве Описание: В маленьком американском городке что-то пошло не так. День наступает ночью, домашние животные убегают в лес, по радио играет одна ... 9.4 10 5
Торрент: Зарегистрирован [2019-09-05 00:35] · скачан: 98 раз
Статус: √ проверено
Размер: 17.34 GB
Как cкачать? Как скачать Мертвые не умирают через торрент | UTorrent

% Раздел Тема Автор DL S | L
Фильмы с авторской озвучкой [ 1.7 GB ] Мертвые не умирают / The Dead Don't Die | AVO | HDRip-AVC Lithuania Скачать
1 | 0
Фильмы 2019-2020 [DVDrip, WEB-DLRip, HDrip] (DUB, MVO) [ 1.46 GB ] Мертвые не умирают / The Dead Don't Die | Лицензия | BDRip Twi7ter Скачать
2 | 0
Фильмы с авторской озвучкой [ 1.46 GB ] Мертвые не умирают / The Dead Don't Die | AVO | BDRip Twi7ter Скачать
2 | 0
Фильмы 2019-2020 [DVDrip, WEB-DLRip, HDrip] (DUB, MVO) [ 746 MB ] Мертвые не умирают / The Dead Don't Die | Лицензия | BDRip surikmas Скачать
1 | 0
Фильмы (Blu-ray, BD-Remux, HDDVD) [ 29.31 GB ] Мертвые не умирают / The Dead Don't Die | iTunes | 1080p sheker187 Скачать
1 | 0
Фильмы 2019-2020 [DVDrip, WEB-DLRip, HDrip] (DUB, MVO) [ 1.41 GB ] Мертвые не умирают / The Dead Don't Die | iTunes | BDRip-AVC Enigma2010 Скачать
2 | 0
Фильмы 2019-2020 [DVDrip, WEB-DLRip, HDrip] (DUB, MVO) [ 2.17 GB ] Мертвые не умирают / The Dead Don't Die | iTunes | BDRip-AVC bober100 Скачать
1 | 0

28-11-2019 20:33  


Отключить вcю реклaмy на сайте, в т.ч. и в плеере онлайн просмотра!

    Дорогой пользователь! Огромная просьба, поблагодарите релизера, оцените раздачу и оставьте свои комментарий, если Вы скачали Мертвые не умирают через торрент бесплатно!!
    Комментировать посты могут только пользователи прошедшие не сложную регистрацию
    Показать сообщения:    


    Мертвые не умирают через торрент
    Скачать бесплатно Мертвые не умирают
    Мертвые не умирают скачать торрент
    Мертвые не умирают смотреть онлайн
    Cкачать фильм Мертвые не умирают бесплатно
    Мертвые не умирают скачать торрент в хорошем качестве
    Мертвые не умирают смотреть онлайн бесплатно в хорошем качестве
    Вы не можете начинать темы
    Вы не можете отвечать на сообщения
    Вы не можете редактировать свои сообщения
    Вы не можете удалять свои сообщения
    Вы не можете голосовать в опросах
    Вы не можете прикреплять файлы к сообщениям
    Вы можете скачивать файлы
    Мертвые не умирают / The Dead Don't Die [2019, ужасы, фэнтези, комедия, UHD WEB-DL 2160p] Дубляж [iTunes] смотреть онлайн, скачать торрент picoco.icu