MEGA NEWS Получи личный уникальный адрес сайта и защити себя от блокировок. Внимание количество ограничено!!!

iTunes

1+1

iTunes

мы

iTunes

1

iTunes

Чернобыль

iTunes

Ральф против интернета

Лицензия

ПШазам

Лицензия

Игра престолов

Лицензия

30
pack

ВАЖНО

!!Акция!!

Alien_RageХит недели

RePack

Resident Evil 21

ИГРА 18+

pack

RePack

Metro:Exodus

!!Акция!!

Alien_Rage

RePack

fifa19

RePack

Assassins Creed: Odyssey

RePack

NEED FOR SPEED™ PAYBACK

3 сезон

9 сезон

Бесстыжие 9 сезон

Все сериалы

все сериалы на PB.wtf

RePack

FAR CRY 5
Ребята, катастрофически не хватает 1900р. для оплаты серверов за АВГУСТ (всвязи с блокировками трафик упал в 3 раза), 1-2р., выручайте.
  

Шторм / Сезон: 1 / Серии: 1-8 из 8 (Борис Хлебников) [2019, Драма, детектив, WEB-DLRip] piratbit.org

Шторм через торрент piratbit.org

Раздают: 22 [ 3 MB/s ] Качают: 16 [ 0 KB/s ]
Размер: 4.69 GB | Добавлен: 19 ч. назад | Торрент скачан:44 раза
Скачать  

05-09-2019 01:50 Шторм Скачать торрент  

Шторм
Год выпуска: 2019
Страна: Россия
Жанр: Драма, детектив
Продолжительность: ~ 00:50:00
Субтитры: отсутствуют

Режиссер: Борис Хлебников



В ролях: Александр Робак, Максим Лагашкин, Анна Михалкова, Анна Котова-Дерябина, Геннадий Смирнов, Михаил Брашинский, Илья Борисов, Дмитрий Лысенков, Александр Мосин, Дарья Жовнер, Сергей Уманов, Валерий Дьяченко, Мария Антонова , Егор Пчёлкин

Описание: В центре сюжета – двое друзей, Михаил Осокин (Максим Лагашкин) и Сергей Градов (Александр Робак). Первый работает в убойном отделе полиции, второй – в отделе по борьбе с коррупцией. Чтобы спасти жену от смертельной болезни и найти деньги на дорогостоящую операцию, Градов идет на должностные преступления и пытается скрыть улики. Изворотливый ум и талант выстраивать сложные многоходовые схемы делают его практически неуловимым. Расследующий череду преступлений Осокин начинает догадываться, что к делу причастен Градов, хотя достаточных доказательств у него пока нет. Для Михаила становится делом чести изобличить своего друга.

Качество: WEB-DLRip
Формат: AVI

Видео: 720x400 (1.80:1), 23.976 fps, XviD ~1500 kbps avg, 0.215 bit/pixel
Аудио: 48.0 kHz, AC3 Dolby Digital, 2/0 (L,R) ch, ~ 192 kbps
скриншот   скриншот   скриншот   скриншот   скриншот   скриншот   скриншот  
скриншот  

General
Complete name : D:\Shtorm.2019.WEB-DLRip.25Kuzmich\Shtorm.s01e02.WEB-DLRip.25Kuzmich.avi
Format : AVI
Format/Info : Audio Video Interleave
File size : 600 MiB
Duration : 49 min 39 s
Overall bit rate : 1 689 kb/s
Writing application : VirtualDubMod 1.5.10.3 | www.virtualdub-fr.org || (build 2550/release)
Writing library : VirtualDubMod build 2550/release

Video
ID : 0
Format : MPEG-4 Visual
Format profile : Advanced Simple@L5
Format settings : BVOP1
Format settings, BVOP : 1
Format settings, QPel : No
Format settings, GMC : No warppoints
Format settings, Matrix : Default (MPEG)
Codec ID : XVID
Codec ID/Hint : XviD
Duration : 49 min 39 s
Bit rate : 1 488 kb/s
Width : 720 pixels
Height : 400 pixels
Display aspect ratio : 16:9
Frame rate : 23.976 (24000/1001) FPS
Color space : YUV
Chroma subsampling : 4:2:0
Bit depth : 8 bits
Scan type : Progressive
Compression mode : Lossy
Bits/(Pixel*Frame) : 0.215
Stream size : 528 MiB (88%)
Writing library : XviD 73

Audio
ID : 1
Format : AC-3
Format/Info : Audio Coding 3
Codec ID : 2000
Duration : 49 min 39 s
Bit rate mode : Constant
Bit rate : 192 kb/s
Channel(s) : 2 channels
Channel positions : Front: L R
Sampling rate : 48.0 kHz
Frame rate : 31.250 FPS (1536 SPF)
Bit depth : 16 bits
Compression mode : Lossy
Stream size : 68.2 MiB (11%)
Alignment : Split accross interleaves
Interleave, duration : 42 ms (1.00 video frame)
Interleave, preload duratio : 500 ms
Service kind : Complete Main

Раздача ведётся путём добавления новых серий, при каждом добавлении создаётся новый торрент. Чтобы начать докачку новой серии, пользователям необходимо сделать следующее:

- Остановить скачивание.
- Удалить старый торрент у себя из клиента (старые серии удалять не надо).
- Скачать новый торрент и запустить его у себя в клиенте вместо старого, при этом указать клиенту путь в старую папку куда и должно происходить скачивание новых серий.

Ваш клиент при этом должен произвести хеширование (проверку) старой папки (если не производит сам - помогите ему сделать это), и будет докачивать только те серии которых у вас ещё нет. Старые серии при этом не удаляются, а продолжают раздаваться!
Если вы уже удалили старые серии, то предотвратить повторную закачку старых серий можно, отжав галочку в соответствующих местах при запуске нового торрента. По возможности, желательно не удалять старые серии как можно дольше, чтобы релизер не столько продолжал раздавать старые серии, а смог сконцентрироваться на новых.
piratbit.org



Скачать Шторм через торрент https://a.radikal.ru/a31/1909/81/04f0a2e0dafe.jpg Скачать фильм Шторм через торрент бесплантно в хорошем качестве Описание: В центре сюжета – двое друзей, Михаил Осокин (Максим Лагашкин) и Сергей Градов (Александр Робак). Первый работает в убойном ... 9.3 10 15
Торрент: Зарегистрирован [2019-10-16 23:00] · скачан: 44 раз
Статус: √ проверено
Размер: 4.69 GB
Как cкачать? Как скачать Шторм через торрент | qTorrent

% Раздел Тема Автор DL S | L
Наши сериалы [ 21.19 GB ] Шторм / Сезон: 1 / Серии: 1-8 из 8 [2019 WEB-DL 1080p] bober100 Скачать
1 | 14
Наши сериалы [ 11.69 GB ] Шторм / Сезон: 1 / Серии: 1-8 из 8 [2019 WEB-DL 720p] bober100 Скачать
8 | 7
Наши сериалы [ 4.89 GB ] Шторм / Сезон: 1 / Серии: 1-7 из 8 [2019 WEBRip-AVC] bober100 Скачать
5 | 6


Последний раз редактировалось: bober100 (2019-10-10 02:43), всего редактировалось 3 раз(а)


>> Регистрируемся здесь <<






Отзывы и комментарии о схеме читаем и пишем здесь: ---> Отзывы и комментарии о схеме

Новые благодарочки в телеграм довольных пользователей:
скриншот   скриншот   скриншот   скриншот   скриншот

06-09-2019 22:47 Шторм Скачать торрент  

Путевый сериал цепляет с первой серии а нецензурка только реализм происходящему на экране придает, как и в случае с недавней Клеткой, только там конечно перебрали малость с матюками.piratbit.org



09-10-2019 18:06 Шторм Скачать торрент  

Серьёзное кино, Робак и Михалкова отлично играют.piratbit.org



    Дорогой пользователь! Огромная просьба, поблагодарите релизера, оцените раздачу и оставьте свои комментарий, если Вы скачали Шторм через торрент бесплатно! Внесите свою лепту в развитие PiratBit!
    Комментировать посты могут только пользователи прошедшие не сложную регистрацию
    Показать сообщения:    

    Шторм через торрент
    Скачать бесплатно Шторм
    Шторм скачать торрент
    Шторм смотреть онлайн
    Cкачать фильм Шторм бесплатно
    Шторм скачать торрент в хорошем качестве
    Шторм смотреть онлайн бесплатно в хорошем качестве


    Вы не можете начинать темы
    Вы не можете отвечать на сообщения
    Вы не можете редактировать свои сообщения
    Вы не можете удалять свои сообщения
    Вы не можете голосовать в опросах
    Вы не можете прикреплять файлы к сообщениям
    Вы можете скачивать файлы