MEGA SALE -50% FORZA HORIZON 4 ULTIMATE+ВСЕ DLC+ОНЛАЙН всего за 599р. 299 руб. (супер цена). Внимание количество ограничено!!!

iTunes

1+1

iTunes

мы

iTunes

1

iTunes

Чернобыль

iTunes

Ральф против интернета

Лицензия

ПШазам

Лицензия

Игра престолов

Лицензия

30
pack

ВАЖНО

!!Акция!!

Alien_RageХит недели

RePack

Resident Evil 21

ИГРА 18+

pack

RePack

Metro:Exodus

!!Акция!!

Alien_Rage

RePack

fifa19

RePack

Assassins Creed: Odyssey

RePack

NEED FOR SPEED™ PAYBACK

3 сезон

9 сезон

Бесстыжие 9 сезон

Все сериалы

все сериалы на PB.wtf

RePack

FAR CRY 5
Ребята, катастрофически не хватает 7730р. для оплаты серверов за АВГУСТ (всвязи с блокировками трафик упал в 3 раза), 1-2р., выручайте.
  

Скала / The Rock (Майкл Бэй / Michael Bay) [1996 г., США, боевик, BDRip - HEVC 1080p 10 bit 60 FPS] Dub piratbit.org

Скала через торрент piratbit.org

Раздают: 5 [ 0 KB/s ] Качают: 1 [ 0 KB/s ]
Размер: 5.08 GB | Добавлен: 13 д. назад | Торрент скачан:77 раз
Скачать  

05-09-2019 15:06 Скала Скачать торрент  

Скала / The Rock
««Cocked, locked, and Ready to Rock!»»

Год выпуска: 1996
Страна: США
Жанр: боевик,
Продолжительность: 02:16:37
Перевод: Дубляж - [Лицензия]
Субтитры: русские (Русские полные)
В ролях: Шон Коннери, Николас Кейдж, Эд Харрис, Джон Спенсер, Дэвид Морс, Уильям Форсайт, Майкл Бьен, Ванесса Марсил, Джон К. МакГинли, Грегори Спорледер, Тони Тодд, Букем Вудбайн, Джим Маниачи, Грег Коллинз, Брендан Келли, Стив Харрис, Дэнни Нуччи, Клер Форлани, Селеста Уивер, Тодд Луисо, Дэвид Бове, Ракел Крелл, Дэннис Чалкер, Маршалл Р. Тиг, Даффи Гейвер, Стив Декер, Джозеф Хоуз, Майк Марер, Карлос Сандовал, Рик Томс, Билли Дэвлин, Джек Йэтс, Хуан А. Риохас, Джозеф Патрик Келли, Инго Нойхаус, Джон Лофлин, Энтони Кларк, Джеймс Кэвизел, Филип Бейкер Холл, Стюарт Уилсон

Описание:
Генерал элитных диверсионных спецсил США Френсис Хаммел похищает со своими лучшими подчинёнными ракеты со смертоносным газом. А затем захватывает в заложники туристов в бывшей тюрьме «Алькатрас». Френсис требует от директора ФБР перечислить на его счёт 100 миллионов долларов, иначе он нанесёт ракетный удар по Сан-Франциско.
Мировая премьера: 7 июня 1996

Качество:BDRip 1080p Rip by DD2D3
Формат: MKV
Видео: V_MPEGH/ISO/HEVC, 1920x816 (2.35:1), 5002 kbps, 59,940 fps, 0,053 bpp
Аудио: русский / AC3 / 2.0 / 48 kHz / 320 kbps / ||
Навигация по главам: есть


Общее
Уникальный идентификатор : 171104127069884148050155799793995602749 (0x80B974C91411DA99B0062081F337DB3D)
Полное имя : D:\Скала - The Rock (1996) BDRip - HEVC 1080p 10 bit 60 FPS.mkv
Формат : Matroska
Версия формата : Version 4
Размер файла : 5,08 Гбайт
Продолжительность : 2 ч. 16 м.
Общий поток : 5322 Кбит/сек
Название фильма : Rip by DD2D3
Дата кодирования : UTC 2019-09-05 14:15:46
Программа кодирования : mkvmerge v10.0.0 ('To Drown In You') 32bit
Библиотека кодирования : libebml v1.3.4 + libmatroska v1.4.5
Attachments : poster

Видео
Идентификатор : 1
Формат : HEVC
Формат/Информация : High Efficiency Video Coding
Профиль формата : Main 10@L4.1@Main
Идентификатор кодека : V_MPEGH/ISO/HEVC
Продолжительность : 2 ч. 16 м.
Битрейт : 5002 Кбит/сек
Ширина : 1920 пикселей
Высота : 816 пикселей
Соотношение сторон : 2,35:1
Режим частоты кадров : Постоянный
Частота кадров : 59,940 (60000/1001) кадров/сек
Цветовое пространство : YUV
Субдискретизация насыщенности : 4:2:0
Битовая глубина : 10 бит
Бит/(Пиксели*Кадры) : 0.053
Размер потока : 4,77 Гбайт (94%)
Библиотека кодирования : x265 2.3+33-0b7d54dbb71a87a0:[Windows][MSVC 1800][64 bit] 10bit: KG7x [x265.ru]
Настройки программы : cpuid=1173503 / frame-threads=2 / numa-pools=4 / wpp / no-pmode / no-pme / no-psnr / no-ssim / log-level=2 / input-csp=1 / input-res=1920x816 / interlace=0 / total-frames=490876 / level-idc=41 / high-tier=1 / uhd-bd=0 / ref=3 / no-allow-non-conformance / no-repeat-headers / annexb / no-aud / no-hrd / info / hash=0 / no-temporal-layers / open-gop / min-keyint=25 / keyint=250 / bframes=4 / b-adapt=2 / b-pyramid / bframe-bias=0 / rc-lookahead=20 / lookahead-slices=5 / scenecut=40 / no-intra-refresh / ctu=64 / min-cu-size=8 / no-rect / no-amp / max-tu-size=32 / tu-inter-depth=1 / tu-intra-depth=1 / limit-tu=0 / rdoq-level=0 / dynamic-rd=0.00 / no-ssim-rd / signhide / no-tskip / nr-intra=0 / nr-inter=0 / no-constrained-intra / strong-intra-smoothing / max-merge=2 / limit-refs=3 / no-limit-modes / me=1 / subme=2 / merange=57 / temporal-mvp / weightp / no-weightb / no-analyze-src-pics / deblock=0:0 / no-sao / no-sao-non-deblock / rd=3 / no-early-skip / no-rskip / no-fast-intra / no-tskip-fast / no-cu-lossless / no-b-intra / rdpenalty=0 / psy-rd=4.00 / psy-rdoq=0.00 / no-rd-refine / analysis-mode=0 / no-lossless / cbqpoffs=0 / crqpoffs=0 / rc=abr / bitrate=5000 / qcomp=0.60 / qpstep=1 / stats-write=0 / stats-read=2 / cplxblur=20.0 / qblur=0.5 / ipratio=1.10 / pbratio=1.00 / aq-mode=0 / aq-strength=0.00 / no-cutree / zone-count=0 / no-strict-cbr / qg-size=64 / rc-grain / qpmax=69 / qpmin=0 / sar=1 / overscan=0 / videoformat=5 / range=0 / colorprim=2 / transfer=2 / colormatrix=2 / chromaloc=0 / display-window=0 / max-cll=0,0 / min-luma=0 / max-luma=1023 / log2-max-poc-lsb=8 / vui-timing-info / vui-hrd-info / slices=1 / opt-qp-pps / opt-ref-list-length-pps / no-multi-pass-opt-rps / scenecut-bias=0.05 / no-opt-cu-delta-qp / no-aq-motion / no-hdr / no-hdr-opt / refine-level=5 / no-limit-sao
Default : Да
Forced : Нет

Аудио
Идентификатор : 2
Формат : AC-3
Формат/Информация : Audio Coding 3
Коммерческое название : Dolby Digital
Идентификатор кодека : A_AC3
Продолжительность : 2 ч. 16 м.
Вид битрейта : Постоянный
Битрейт : 320 Кбит/сек
Каналы : 2 канала
Channel layout : L R
Частота : 48,0 КГц
Частота кадров : 31,250 кадров/сек (1536 SPF)
Битовая глубина : 16 бит
Метод сжатия : С потерями
Размер потока : 313 Мбайт (6%)
Заголовок : РусскийDolby Digital Audio / 320 kbps / 2.0 / 48 kHz / 320 kbps / DN -4dB |Дубляж CEE|
Язык : Russian
ServiceKind/String : Complete Main
Default : Нет
Forced : Нет

Текст
Идентификатор : 3
Формат : UTF-8
Идентификатор кодека : S_TEXT/UTF8
Идентификатор кодека/Информация : UTF-8 Plain Text
Продолжительность : 2 ч. 9 м.
Битрейт : 97 бит/сек
ElementCount : 1481
Размер потока : 92,7 Кбайт (0%)
Заголовок : Русские полные
Язык : Russian
Default : Нет
Forced : Нет

Меню
00:00:00.000 : :Chapter 01
00:00:33.241 : :Chapter 02
00:03:47.685 : :Chapter 03
00:07:55.516 : :Chapter 04
00:14:15.771 : :Chapter 05
00:16:16.475 : :Chapter 06
00:24:57.078 : :Chapter 07
00:26:44.603 : :Chapter 08
00:28:41.761 : :Chapter 09
00:39:43.631 : :Chapter 10
00:43:39.742 : :Chapter 11
00:49:39.810 : :Chapter 12
00:53:46.932 : :Chapter 13
00:55:29.242 : :Chapter 14
00:59:18.596 : :Chapter 15
01:04:45.423 : :Chapter 16
01:09:13.566 : :Chapter 17
01:14:05.399 : :Chapter 18
01:17:07.122 : :Chapter 19
01:18:45.637 : :Chapter 20
01:24:15.508 : :Chapter 21
01:28:54.954 : :Chapter 22
01:34:31.332 : :Chapter 23
01:39:52.236 : :Chapter 24
01:43:02.676 : :Chapter 25
01:46:27.547 : :Chapter 26
01:49:48.039 : :Chapter 27
01:52:59.105 : :Chapter 28
01:57:06.561 : :Chapter 29
02:00:07.700 : :Chapter 30
02:06:15.651 : :Chapter 31
02:10:08.634 : :Chapter 32
02:16:29.181 : :Chapter 33
скриншот   скриншот   скриншот   скриншот   скриншот  

© Оформление by DD2D3 piratbit.org



Скачать Скала через торрент https://funkyimg.com/i/2WKp5.jpg Скачать фильм Скала через торрент бесплантно в хорошем качестве Описание: Генерал элитных диверсионных спецсил США Френсис Хаммел похищает со своими лучшими подчинёнными ракеты со смертоносным газом. А ... 9.3 10 13
Торрент: Зарегистрирован [2019-09-05 15:06] · скачан: 77 раз
Статус: √ проверено
Размер: 5.08 GB
Как cкачать? Как скачать Скала через торрент | qTorrent

% Раздел Тема Автор DL S | L
Фильмы (Blu-ray, BD-Remux, HDDVD) [ 21.72 GB ] Скала / The Rock [1996 Blu-Ray Remux] Dub + AVO Ворон Скачать
1 | 0
Фильмы [HD 720p, 1080p] (Хороший звук DUB, MVO) [ 10.34 GB ] Скала / The Rock [1996 BDRip 720p от _denis_100 / NNNB] DUB MVO 3xAVO + Original + Sub _denis_100 Скачать
1 | 0
Фильмы [HD 720p, 1080p] (Хороший звук DUB, MVO) [ 15.5 GB ] Скала / The Rock [1996 BDRip 1080p] Dub + MVO + AVO + Original + Sub Ворон Скачать
1 | 0
Фильмы до 2000 г. [ 2.36 GB ] Скала / The Rock [1996 BDRip] [AVO] + killermax2013 Скачать
1 | 0
Фильмы (Blu-ray, BD-Remux, HDDVD) [ 40.03 GB ] Скала / The Rock [1996 Blu-Ray DUB ] shuller Скачать
1 | 0
Фильмы (Blu-ray, BD-Remux, HDDVD) [ 35.25 GB ] Скала / The Rock [1996 Blu-Ray DUB ] shuller Скачать
1 | 0
Фильмы до 2000 г. [ 2.18 GB ] Скала / The Rock [1996 HDRip-AVC] DUB / от R.G. nICE Films Phoenix Скачать
1 | 0


>> Регистрируемся здесь <<






Отзывы и комментарии о схеме читаем и пишем здесь: ---> Отзывы и комментарии о схеме

Новые благодарочки в телеграм довольных пользователей:
скриншот   скриншот   скриншот   скриншот   скриншот

05-09-2019 15:32 Скала Скачать торрент  

Фильм легенда) Супер. Даже спустя более 20 лет.piratbit.org



05-09-2019 17:51 Скала Скачать торрент  

Жаль, что только на компе не воспроизводится.piratbit.org



05-09-2019 19:05 Скала Скачать торрент  

Torvald'90 писал(а):

Жаль, что только на компе не воспроизводится.

Так обнови кодеки.piratbit.org



06-09-2019 15:28 Скала Скачать торрент  

Torvald'90 писал(а):

Жаль, что только на компе не воспроизводится.

Скажи спасибо, что ты нужен генералу,
а то я бы с радостью тебя освежевал!piratbit.org



07-09-2019 17:43 Скала Скачать торрент  

суперpiratbit.org



08-09-2019 17:46 Скала Скачать торрент  

Фильм охрененный. В мои личные топ-десять точно входит.piratbit.org



    Дорогой пользователь! Огромная просьба, поблагодарите релизера, оцените раздачу и оставьте свои комментарий, если Вы скачали Скала через торрент бесплатно! Внесите свою лепту в развитие PiratBit!
    Комментировать посты могут только пользователи прошедшие не сложную регистрацию
    Показать сообщения:    

    Скала через торрент
    Скачать бесплатно Скала
    Скала скачать торрент
    Скала смотреть онлайн
    Cкачать фильм Скала бесплатно
    Скала скачать торрент в хорошем качестве
    Скала смотреть онлайн бесплатно в хорошем качестве


    Вы не можете начинать темы
    Вы не можете отвечать на сообщения
    Вы не можете редактировать свои сообщения
    Вы не можете удалять свои сообщения
    Вы не можете голосовать в опросах
    Вы не можете прикреплять файлы к сообщениям
    Вы можете скачивать файлы