Достать ножи: Стеклянная луковица

MVO

Добыча

Дубляж

Уэнсдэй

1 сезон

Тор

Дубляж

13 клиническая

1 сезон

Жестокая ночь

MVO

Одни из нас

1 сезон

Deluxe

pack

Рекомендуем

30

Пиратка

ВАЖНО

ВАЖНО

Ghostwire

Пиратка

jed

RePack

nioh2

RePack

RDR2

RePack

NEED FOR SPEED™ PAYBACK

RePack

скачать торрент

Кинопоиск HD

Острые козырьки 6 сезон

6 сезон

FAR CRY 6

RePack

скачать торрент

Лицензия

скачать торрент

MVO

1

1 сезон

скачать торрент

1 сезон

скачать торрент

Лицензия

  

Воины света / Daybreakers (Майкл Спириг, Питер Спириг) [2009, Ужасы, фантастика, боевик, триллер, драма, UHD BDRip 2160p] [SDR] Дубляж+MVO+VO

Воины света через торрент piratbit.org

Размер: 27.13 GB | Добавлен: 3 года 4 мес. назад | Торрент скачан:13 раз
Смотреть онлайн | Скачать | Поддержите нас   

07-09-2019 17:20 Воины света Скачать торрент  

Название: Воины света
Оригинальное название: Daybreakers
Год выхода: 2009
Жанр: Ужасы, фантастика, боевик, триллер, драма
Страна: США, Австралия, Lionsgate
Продолжительность: 01:37:46
Перевод: Дублированный, профессиональный многоголосый, любительский одноголосый
Субтитры: Русские, английские

Режиссер: Майкл Спириг, Питер Спириг

В ролях: Итэн Хоук, Уиллем Дефо, Сэм Нилл, Джей Лагайя, Дэмиен Гарви, Аллан Тодд, Питер Велман, Мишель Эткинсон, Джек Брэдфорд, Крис Браун

Описание: 2019 год. Глобальная эпидемия превратила большинство людей в вампиров, поставив человечество на грань вымирания. Безмятежное будущее не светит, впрочем, и кровососам: в условиях дефицита крови они вынуждены холить и лелеять каждую оставшуюся в живых человеческую особь - либо синтезировать заменитель крови. Противостоять концу света пытается группа ученых, ищущая средства для борьбы с вампирами.

rating

Качество: UHD BDRip 2160p
Формат: MKV

Видео: HEVC SDR, 30.2 Mбит/с, 3840x1634, 8 бит
Аудио #1: Русский (DTS-HD MA, 6 ch, 3936 Кбит/c) дублированный | BluRay Rus
Аудио #2: Русский (AC3, 6 ch, 448 Кбит/с) профессиональный многоголосый | Рен ТВ
Аудио #3: Русский (AC3, 2 ch, 192 Кбит/с) любительский одноголосый | Вячеслав Замез
Аудио #4: Английский (TrueHD/Atmos, 8 ch, 4556 Кбит/c)
Аудио #5: Английский (AC3, 6 ch, 640 Кбит/с)
скриншот  скриншот  скриншот  скриншот  

Complete name : Daybreakers.2009.UHD.BDRip.2160p.SDR.8bit.x264 -KZ.mkv
Format : Matroska
Format version : Version 4
File size : 27.1 GiB
Duration : 1 h 38 min
Overall bit rate mode : Variable
Overall bit rate : 39.6 Mb/s
Movie name : Daybreakers (2009) UHD BDRip 2160p SDR 8bit x264-KZ
Encoded date : UTC 2019-09-07 15:21:00
Writing application : mkvmerge v37.0.0 ('Leave It') 64-bit
Writing library : libebml v1.3.9 + libmatroska v1.5.2

Video
ID : 1
Format : AVC
Format/Info : Advanced Video Codec
Format profile : High@L5.1
Format settings : CABAC / 5 Ref Frames
Format settings, CABAC : Yes
Format settings, Reference frames : 5 frames
Codec ID : V_MPEG4/ISO/AVC
Duration : 1 h 37 min
Bit rate : 30.2 Mb/s
Width : 3 840 pixels
Height : 1 634 pixels
Display aspect ratio : 2.35:1
Frame rate mode : Constant
Frame rate : 23.976 (24000/1001) FPS
Color space : YUV
Chroma subsampling : 4:2:0
Bit depth : 8 bits
Scan type : Progressive
Bits/(Pixel*Frame) : 0.201
Stream size : 20.6 GiB (76%)
Title : Daybreakers.2009.UHD.BDRip.2160p.SDR.8bit.x264 -SWTYBLZ
Writing library : x264 core 157 r2935 545de2f
Encoding settings : cabac=1 / ref=5 / deblock=1:-1:-1 / analyse=0x3:0x113 / me=umh / subme=10 / psy=1 / psy_rd=1.00:0.15 / mixed_ref=1 / me_range=48 / chroma_me=1 / trellis=2 / 8x8dct=1 / cqm=0 / deadzone=21,11 / fast_pskip=1 / chroma_qp_offset=-3 / threads=51 / lookahead_threads=4 / sliced_threads=0 / nr=0 / decimate=0 / interlaced=0 / bluray_compat=0 / constrained_intra=0 / bframes=3 / b_pyramid=2 / b_adapt=2 / b_bias=0 / direct=3 / weightb=1 / open_gop=0 / weightp=2 / keyint=250 / keyint_min=23 / scenecut=40 / intra_refresh=0 / rc_lookahead=50 / rc=crf / mbtree=1 / crf=18.0 / qcomp=0.60 / qpmin=0 / qpmax=69 / qpstep=4 / ip_ratio=1.40 / aq=1:1.00
Language : English
Default : Yes
Forced : No

Audio #1
ID : 2
Format : DTS XLL
Format/Info : Digital Theater Systems
Commercial name : DTS-HD Master Audio
Codec ID : A_DTS
Duration : 1 h 38 min
Bit rate mode : Variable
Bit rate : 3 936 kb/s
Channel(s) : 6 channels
Channel layout : C L R Ls Rs LFE
Sampling rate : 48.0 kHz
Frame rate : 93.750 FPS (512 SPF)
Bit depth : 24 bits
Compression mode : Lossless
Stream size : 2.70 GiB (10%)
Title : Дубляж BD Rus
Language : Russian
Default : Yes
Forced : No

Audio #2
ID : 3
Format : AC-3
Format/Info : Audio Coding 3
Commercial name : Dolby Digital
Codec ID : A_AC3
Duration : 1 h 37 min
Bit rate mode : Constant
Bit rate : 448 kb/s
Channel(s) : 6 channels
Channel layout : L R C LFE Ls Rs
Sampling rate : 48.0 kHz
Frame rate : 31.250 FPS (1536 SPF)
Bit depth : 16 bits
Compression mode : Lossy
Stream size : 313 MiB (1%)
Title : AVO Zamez
Language : Russian
Service kind : Complete Main
Default : No
Forced : No

Audio #3
ID : 4
Format : AC-3
Format/Info : Audio Coding 3
Commercial name : Dolby Digital
Codec ID : A_AC3
Duration : 1 h 37 min
Bit rate mode : Constant
Bit rate : 192 kb/s
Channel(s) : 2 channels
Channel layout : L R
Sampling rate : 48.0 kHz
Frame rate : 31.250 FPS (1536 SPF)
Bit depth : 16 bits
Compression mode : Lossy
Stream size : 134 MiB (0%)
Title : MVO РенТВ
Language : Russian
Service kind : Complete Main
Default : No
Forced : No

Audio #4
ID : 5
Format : DTS XLL
Format/Info : Digital Theater Systems
Commercial name : DTS-HD Master Audio
Codec ID : A_DTS
Duration : 1 h 37 min
Bit rate mode : Variable
Bit rate : 4 259 kb/s
Channel(s) : 8 channels
Channel layout : C L R LFE Lb Rb Lss Rss
Sampling rate : 48.0 kHz
Frame rate : 93.750 FPS (512 SPF)
Bit depth : 24 bits
Compression mode : Lossless
Stream size : 2.91 GiB (11%)
Language : English
Default : No
Forced : No

Audio #5
ID : 6
Format : AC-3
Format/Info : Audio Coding 3
Commercial name : Dolby Digital
Codec ID : A_AC3
Duration : 1 h 37 min
Bit rate mode : Constant
Bit rate : 640 kb/s
Channel(s) : 6 channels
Channel layout : L R C LFE Ls Rs
Sampling rate : 48.0 kHz
Frame rate : 31.250 FPS (1536 SPF)
Bit depth : 16 bits
Compression mode : Lossy
Stream size : 448 MiB (2%)
Language : English
Service kind : Complete Main
Default : No
Forced : No

Text #1
ID : 7
Format : UTF-8
Codec ID : S_TEXT/UTF8
Codec ID/Info : UTF-8 Plain Text
Duration : 1 h 29 min
Bit rate : 54 b/s
Count of elements : 614
Stream size : 35.6 KiB (0%)
Language : Russian
Default : Yes
Forced : No

Text #2
ID : 8
Format : UTF-8
Codec ID : S_TEXT/UTF8
Codec ID/Info : UTF-8 Plain Text
Duration : 1 h 27 min
Bit rate : 33 b/s
Count of elements : 693
Stream size : 21.7 KiB (0%)
Language : English
Default : No
Forced : No

Menu
00:00:00.000 : en:Blood Supply
00:04:38.820 : en:Capture Humans
00:08:23.378 : en:Starving
00:18:32.778 : en:Let Me Help
00:24:06.153 : en:Human Blood
00:33:58.995 : en:Another Way
00:37:38.506 : en:Like You Once
00:40:41.731 : en:Deadly Getaway
00:46:52.977 : en:The Sun
00:51:30.254 : en:Staying Focused
00:57:13.847 : en:Worth The Risk
01:00:20.492 : en:An Epidemic
01:05:40.937 : en:Daylight Burn
01:10:43.865 : en:Surrounded
01:14:22.833 : en:Only Chance
01:23:53.111 : en:Let's Do It




Скачать Воины света через торрент http://i75.fastpic.ru/big/2016/0103/66/83e4b5602d046bc6d1546c73a4292766.jpg Скачать, смотреть онлайн Воины света бесплантно в хорошем качестве Описание: 2019 год. Глобальная эпидемия превратила большинство людей в вампиров, поставив человечество на грань вымирания. Безмятежное ... 10 10 2
Торрент: Зарегистрирован [2019-09-07 17:20] · скачан: 13 раз
Статус: √ проверено
Размер: 27.13 GB
Как cкачать? Как скачать Воины света через торрент | UTorrent

28-11-2019 20:33  


Отключить вcю реклaмy на сайте, в т.ч. и в плеере онлайн просмотра!

    Дорогой пользователь! Огромная просьба, поблагодарите релизера, оцените раздачу и оставьте свои комментарий, если Вы скачали Воины света через торрент бесплатно!!
    Комментировать посты могут только пользователи прошедшие не сложную регистрацию
    Показать сообщения:    


    Воины света через торрент
    Скачать бесплатно Воины света
    Воины света скачать торрент
    Воины света смотреть онлайн
    Cкачать фильм Воины света бесплатно
    Воины света скачать торрент в хорошем качестве
    Воины света смотреть онлайн бесплатно в хорошем качестве
    Вы не можете начинать темы
    Вы не можете отвечать на сообщения
    Вы не можете редактировать свои сообщения
    Вы не можете удалять свои сообщения
    Вы не можете голосовать в опросах
    Вы не можете прикреплять файлы к сообщениям
    Вы можете скачивать файлы
    Воины света / Daybreakers [2009, Ужасы, фантастика, боевик, триллер, драма, UHD BDRip 2160p] [SDR] Дубляж+MVO+VO смотреть онлайн, скачать торрент picoco.icu