Достать ножи: Стеклянная луковица

MVO

Добыча

Дубляж

Уэнсдэй

1 сезон

Тор

Дубляж

13 клиническая

1 сезон

Жестокая ночь

MVO

Одни из нас

1 сезон

Deluxe

pack

Рекомендуем

30

Пиратка

ВАЖНО

ВАЖНО

Ghostwire

Пиратка

jed

RePack

nioh2

RePack

RDR2

RePack

NEED FOR SPEED™ PAYBACK

RePack

скачать торрент

Кинопоиск HD

Острые козырьки 6 сезон

6 сезон

FAR CRY 6

RePack

скачать торрент

Лицензия

скачать торрент

MVO

1

1 сезон

скачать торрент

1 сезон

скачать торрент

Лицензия

  

Годзилла 2: Король монстров / Godzilla: King of the Monsters (Майкл Догерти) [2019, фантастика, фэнтези, боевик, приключения, UHD BDRemux 2160p] Дубляж [Лицензия] +MVO [HDRezka]

Годзилла 2: Король монстров через торрент piratbit.org

Размер: 56.65 GB | Добавлен: 3 года 5 мес. назад | Торрент скачан:66 раз
Смотреть онлайн | Скачать | Поддержите нас   

08-09-2019 09:20 Годзилла 2: Король монстров Скачать торрент  

Годзилла 2: Король монстров / Godzilla: King of the Monsters
Год выпуска: 2019
Страна: США, Япония
Жанр: фантастика, фэнтези, боевик, приключения
Продолжительность: 02:11:42
Перевод:

#1: Дублированный | Лицензия
#2: Профессиональный многоголосый | HDRezka

Субтитры: Русские (Forced, full), английские (full, SDH)

Режиссер: Майкл Догерти

rating

В ролях:

Кайл Чандлер (Dr. Mark Russell), Вера Фармига (Dr. Emma Russell), Милли Бобби Браун (Madison Russell), Кэн Ватанабэ (Dr. Ishiro Serizawa), Чжан Цзыи (Dr. Ilene Chen / Dr. Ling), Брэдли Уитфорд (Dr. Rick Stanton), Салли Хокинс (Dr. Vivienne Graham), Чарльз Дэнс (Alan Jonah), Томас Миддлдитч (Sam Coleman), Аиша Хайндс (Colonel Diane Foster), О’Ши Джексон мл. (Chief Warrant Officer Barnes), Дэвид Стрэтэйрн (Admiral William Stenz)
Описание: История рассказывает о героических усилиях криптозоологического агентства «Монарх» по сдерживанию гигантских монстров. В этот раз против могучего Годзиллы выступают Мотра, Родан и ультимативный кайдзю - трёхголовый монстр Кинг Гидора. Когда эти древние суперхищники, со временем превратившиеся в полузабытые мифы, восстают снова, чтобы сойтись в схватке, человечеству остаётся отойти в сторонку и постараться не погибнуть.

Качество: UHD BDRemux 2160p
Формат: MKV

Видео: 3840x2160 at 23.976 fps, MPEG-H HEVC HDR Video, 56400 kbps avg
Аудио 1: Russian AC3 / 5.1 / 48 kHz / 448 kbps / 16 bits |Дубляж, Blu-Ray|_Дублированное [Лицензия]
Аудио 2: Russian AC3 / 2.0 / 48 kHz / 192 kbps / 16 bits |MVO, HDRezka|
Аудио 3: English Dolby TrueHD/Atmos Audio / 7.1-Atmos / 48 kHz / 4245 kbps / 24-bit |original|
Аудио 4: English AC3 Core: 5.1-EX / 48 kHz / 448 kbps |original|
Аудио 5: English AC3 / 2.0 / 48 kHz / 192 kbps / 16 bits |Commentary by co-writer/co-director Michael Dougherty, co-writer Zach Shields and actor O'Shea Jackson Jr.|
скриншот  скриншот  скриншот  скриншот  скриншот  

Общее
Уникальный идентификатор : 316234666088228219761374663613126208869 (0xEDE894CF3DF2C9737BDCF1C5E1CAED65)
Полное имя : H:\UHD\Годзилла 2 Король монстров.2019.UHD.Blu-Ray.Remux.2160p.mkv
Формат : Matroska
Версия формата : Version 4
Размер файла : 56,6 Гбайт
Продолжительность : 2 ч. 11 м.
Режим общего битрейта : Переменный
Общий поток : 61,6 Мбит/сек
Дата кодирования : UTC 2019-09-07 21:35:18
Программа кодирования : mkvmerge v37.0.0 ('Leave It') 64-bit
Библиотека кодирования : libebml v1.3.9 + libmatroska v1.5.2
Attachments : poster.jpg

Видео
Идентификатор : 1
Формат : HEVC
Формат/Информация : High Efficiency Video Coding
Профиль формата : Main 10@L5.1@High
HDR_Format/String : SMPTE ST 2094 App 4, Version 1, HDR10+ Profile B compatible
Идентификатор кодека : V_MPEGH/ISO/HEVC
Продолжительность : 2 ч. 11 м.
Битрейт : 56,4 Мбит/сек
Ширина : 3840 пикселей
Высота : 2160 пикселей
Соотношение сторон : 16:9
Режим частоты кадров : Постоянный
Частота кадров : 23,976 (24000/1001) кадра/сек
Цветовое пространство : YUV
Субдискретизация насыщенности : 4:2:0 (Type 2)
Битовая глубина : 10 бит
Бит/(Пиксели*Кадры) : 0.284
Размер потока : 51,9 Гбайт (92%)
Default : Да
Forced : Нет
Цветовой диапазон : Limited
Основные цвета : BT.2020
Характеристики трансфера : PQ
Коэффициенты матрицы : BT.2020 non-constant
MasteringDisplay_ColorPrimaries : Display P3
MasteringDisplay_Luminance : min: 0.0050 cd/m2, max: 4000 cd/m2
MaxCLL : 1998 cd/m2
MaxFALL : 414 cd/m2

Аудио #1
Идентификатор : 2
Формат : AC-3
Формат/Информация : Audio Coding 3
Коммерческое название : Dolby Digital
Идентификатор кодека : A_AC3
Продолжительность : 2 ч. 11 м.
Вид битрейта : Постоянный
Битрейт : 448 Кбит/сек
Каналы : 6 каналов
ChannelLayout : L R C LFE Ls Rs
Частота : 48,0 КГц
Частота кадров : 31,250 кадров/сек (1536 SPF)
Битовая глубина : 16 бит
Метод сжатия : С потерями
Размер потока : 422 Мбайт (1%)
Заголовок : Дубляж, Blu-Ray
Язык : Russian
ServiceKind/String : Complete Main
Default : Да
Forced : Нет

Аудио #2
Идентификатор : 3
Формат : AC-3
Формат/Информация : Audio Coding 3
Коммерческое название : Dolby Digital
Идентификатор кодека : A_AC3
Продолжительность : 2 ч. 11 м.
Вид битрейта : Постоянный
Битрейт : 192 Кбит/сек
Каналы : 2 канала
ChannelLayout : L R
Частота : 48,0 КГц
Частота кадров : 31,250 кадров/сек (1536 SPF)
Битовая глубина : 16 бит
Метод сжатия : С потерями
Размер потока : 181 Мбайт (0%)
Заголовок : MVO, HDRezka
Язык : Russian
ServiceKind/String : Complete Main
Default : Нет
Forced : Нет

Аудио #3
Идентификатор : 4
Формат : MLP FBA 16-ch
Формат/Информация : Meridian Lossless Packing FBA with 16-channel presentation
Коммерческое название : Dolby TrueHD with Dolby Atmos
Идентификатор кодека : A_TRUEHD
Продолжительность : 2 ч. 11 м.
Вид битрейта : Переменный
Битрейт : 3797 Кбит/сек
Максимальный битрейт : 6537 Кбит/сек
Каналы : 8 каналов
ChannelLayout : L R C LFE Ls Rs Lb Rb
Частота : 48,0 КГц
Частота кадров : 1200,000 кадров/сек (40 SPF)
Метод сжатия : Без потерь
Размер потока : 3,49 Гбайт (6%)
Язык : English
Default : Нет
Forced : Нет
NumberOfDynamicObjects : 15
BedChannelCount/String : 1 канал
BedChannelConfiguration : LFE

Аудио #4
Идентификатор : 5
Формат : AC-3
Формат/Информация : Audio Coding 3
Коммерческое название : Dolby Digital
Идентификатор кодека : A_AC3
Продолжительность : 2 ч. 11 м.
Вид битрейта : Постоянный
Битрейт : 448 Кбит/сек
Каналы : 6 каналов
ChannelLayout : L R C LFE Ls Rs
Частота : 48,0 КГц
Частота кадров : 31,250 кадров/сек (1536 SPF)
Битовая глубина : 16 бит
Метод сжатия : С потерями
Размер потока : 422 Мбайт (1%)
Язык : English
ServiceKind/String : Complete Main
Default : Нет
Forced : Нет

Аудио #5
Идентификатор : 6
Формат : AC-3
Формат/Информация : Audio Coding 3
Коммерческое название : Dolby Digital
Идентификатор кодека : A_AC3
Продолжительность : 2 ч. 11 м.
Вид битрейта : Постоянный
Битрейт : 192 Кбит/сек
Каналы : 2 канала
ChannelLayout : L R
Частота : 48,0 КГц
Частота кадров : 31,250 кадров/сек (1536 SPF)
Битовая глубина : 16 бит
Метод сжатия : С потерями
Размер потока : 181 Мбайт (0%)
Заголовок : Commentary by co-writer/co-director Michael Dougherty, co-writer Zach Shields and actor O'Shea Jackson Jr.
Язык : English
ServiceKind/String : Complete Main
Default : Нет
Forced : Нет

Текст #1
Идентификатор : 7
Формат : UTF-8
Идентификатор кодека : S_TEXT/UTF8
Идентификатор кодека/Информация : UTF-8 Plain Text
Продолжительность : 2 ч. 9 м.
Битрейт : 4 бит/сек
ElementCount : 66
Размер потока : 4,37 Кбайт (0%)
Заголовок : forced
Язык : Russian
Default : Да
Forced : Нет

Текст #2
Идентификатор : 8
Формат : UTF-8
Идентификатор кодека : S_TEXT/UTF8
Идентификатор кодека/Информация : UTF-8 Plain Text
Продолжительность : 2 ч. 10 м.
Битрейт : 77 бит/сек
ElementCount : 1372
Размер потока : 74,2 Кбайт (0%)
Заголовок : full
Язык : Russian
Default : Нет
Forced : Нет

Текст #3
Идентификатор : 9
Формат : UTF-8
Идентификатор кодека : S_TEXT/UTF8
Идентификатор кодека/Информация : UTF-8 Plain Text
Продолжительность : 2 ч. 10 м.
Битрейт : 44 бит/сек
ElementCount : 1310
Размер потока : 42,6 Кбайт (0%)
Заголовок : full
Язык : English
Default : Нет
Forced : Нет

Текст #4
Идентификатор : 10
Формат : UTF-8
Идентификатор кодека : S_TEXT/UTF8
Идентификатор кодека/Информация : UTF-8 Plain Text
Продолжительность : 2 ч. 11 м.
Битрейт : 53 бит/сек
ElementCount : 1661
Размер потока : 51,2 Кбайт (0%)
Заголовок : SDH
Язык : English
Default : Нет
Forced : Нет

Меню
00:00:00.000 : :Chapter 01
00:10:53.903 : :Chapter 02
00:18:06.835 : :Chapter 03
00:30:27.325 : :Chapter 04
00:45:18.632 : :Chapter 05
00:54:11.039 : :Chapter 06
01:05:41.646 : :Chapter 07
01:09:31.584 : :Chapter 08
01:19:31.308 : :Chapter 09
01:30:06.234 : :Chapter 10
01:38:36.869 : :Chapter 11
01:49:58.883 : :Chapter 12
01:59:28.828 : :Chapter 13




Скачать Годзилла 2: Король монстров через торрент https://img16.lostpic.net/2019/08/18/2e778c03a6633d90519bb405906ef828.jpg Скачать, смотреть онлайн Годзилла 2: Король монстров бесплантно в хорошем качестве Описание: История рассказывает о героических усилиях криптозоологического агентства «Монарх» по сдерживанию гигантских монстров. В этот раз ... 9.7 10 6
Info! Золотая раздача, скачанное не засчитывается.
Торрент: Зарегистрирован [2019-09-08 09:20] · скачан: 66 раз
Статус: √ проверено
Размер: 56.65 GB
Как cкачать? Как скачать Годзилла 2: Король монстров через торрент | UTorrent

% Раздел Тема Автор DL S | L
Фильмы (HD 720p, 1080p) (48-60 fps) [ 24.09 GB ] Годзилла 2: Король монстров / Godzilla: King of the Monsters | iTunes | 1080p, 60 fps sheker187 Скачать
1 | 0
Фильмы (Blu-ray, BD-Remux, HDDVD) [ 24.84 GB ] Годзилла 2: Король монстров / Godzilla: King of the Monsters | iTunes | BD Remux 1080p bober100 Скачать
1 | 0
Фильмы 2019-2020 [DVDrip, WEB-DLRip, HDrip] (DUB, MVO) [ 2.82 GB ] Годзилла 2: Король монстров / Godzilla: King of the Monsters | iTunes | DLRip-AVC Enigma2010 Скачать
2 | 0
Фильмы (Blu-ray, BD-Remux, HDDVD) [ 45.16 GB ] Годзилла 2: Король монстров / Godzilla: King of the Monsters | Лицензия | 1080p bober100 Скачать
1 | 0
Ultra HD (UHD: 2K, 4K, 8K) [ 64.08 GB ] Годзилла 2: Король монстров / Godzilla: King of the Monsters | Лицензия | 2160p bober100 Скачать
1 | 0
R.G. Resident & PiratVoice - Фильмы, Видео [ 466 MB ] Годзилла 2: Король монстров / Godzilla: King of the Monsters | iTunes | HDRip | КПК от R.G.Resident Cтрана Скачать
1 | 0
3D Фильмы [ 14.06 GB ] Годзилла 2: Король монстров 3Д / Godzilla: King of the Monsters 3D | Лицензия | 1080p bober100 Скачать
1 | 0

28-11-2019 20:33  


Отключить вcю реклaмy на сайте, в т.ч. и в плеере онлайн просмотра!

    Дорогой пользователь! Огромная просьба, поблагодарите релизера, оцените раздачу и оставьте свои комментарий, если Вы скачали Годзилла 2: Король монстров через торрент бесплатно!!
    Комментировать посты могут только пользователи прошедшие не сложную регистрацию
    Показать сообщения:    


    Годзилла 2: Король монстров через торрент
    Скачать бесплатно Годзилла 2: Король монстров
    Годзилла 2: Король монстров скачать торрент
    Годзилла 2: Король монстров смотреть онлайн
    Cкачать фильм Годзилла 2: Король монстров бесплатно
    Годзилла 2: Король монстров скачать торрент в хорошем качестве
    Годзилла 2: Король монстров смотреть онлайн бесплатно в хорошем качестве
    Вы не можете начинать темы
    Вы не можете отвечать на сообщения
    Вы не можете редактировать свои сообщения
    Вы не можете удалять свои сообщения
    Вы не можете голосовать в опросах
    Вы не можете прикреплять файлы к сообщениям
    Вы можете скачивать файлы
    Годзилла 2: Король монстров / Godzilla: King of the Monsters [2019, фантастика, фэнтези, боевик, приключения, UHD BDRemux 2160p] Дубляж [Лицензия] +MVO [HDRezka] смотреть онлайн, скачать торрент picoco.icu