MEGA SALE -50% FORZA HORIZON 4 ULTIMATE+ВСЕ DLC+ОНЛАЙН всего за 599р. 299 руб. (супер цена). Внимание количество ограничено!!!

iTunes

1+1

iTunes

мы

iTunes

1

iTunes

Чернобыль

iTunes

Ральф против интернета

Лицензия

ПШазам

Лицензия

Игра престолов

Лицензия

30
pack

ВАЖНО

!!Акция!!

Alien_RageХит недели

RePack

Resident Evil 21

ИГРА 18+

pack

RePack

Metro:Exodus

!!Акция!!

Alien_Rage

RePack

fifa19

RePack

Assassins Creed: Odyssey

RePack

NEED FOR SPEED™ PAYBACK

3 сезон

9 сезон

Бесстыжие 9 сезон

Все сериалы

все сериалы на PB.wtf

RePack

FAR CRY 5
Ребята, катастрофически не хватает 7730р. для оплаты серверов за АВГУСТ (всвязи с блокировками трафик упал в 3 раза), 1-2р., выручайте.
  

Код неизвестен / Code inconnu: Récit incomplet de divers voyages (Михаэль Ханеке) [2000, драма, BDRip 1080p by msltel] DVO piratbit.org

Код неизвестен через торрент piratbit.org

Раздают: 3 [ 0 KB/s ] Качают: 1 [ 0 KB/s ]
Размер: 14.72 GB | Добавлен: 9 д. назад | Торрент скачан:6 раз
Скачать  

09-09-2019 07:40 Код неизвестен Скачать торрент  

Название: Код неизвестен
Оригинальное название: Code inconnu: Récit incomplet de divers voyages
Год выпуска: 2000
Страна: Франция, Австрия, Румыния, Германия
Жанр: драма
Продолжительность: 01:57:00
Перевод: профессиональный двухголосый

Режиссер: Михаэль Ханеке
В ролях: Жюльетт Бинош, Тьерри Нёвик, Йозеф Бирбихлер, Александр Хамиди, Маймуна Хелен Диарра, Она Лу Йенке, Джибрил Куят, Луминица Георгиу, Гренгута Харитон, Боб Николеску

О фильме: Париж. Наше время. Жан приезжает к старшему брату, фотокорреспонденту Жоржу, а тот отправляется на очередную войну. Жан знакомится с подругой брата, актрисой Анн, которая недовольна постоянными отлучками Жоржа и решает избавиться от их будущего ребенка. Анн не спешит сообщать Жану новый код от входной двери, и он в расстроенных чувствах устраивает ссору на улице с африканцем Амаду и нелегальной румынской иммигранткой Марией. Прибывшая полиция арестовывает Амаду и депортирует Марию. В один миг неизвестный код роковым образом меняет судьбы людей и завязывает историю, похожую на многоцветье Парижа — города, который задает загадки и не дает ответов...



Качество: BDRip 1080p
Формат: MKV
Видео: MPEG-4 AVC, 16.3 Мбит/с, 1920x1036, 23.976 кадр/с
Аудио 1: русский, AC3, 192 kbps, 2 ch, 48 kHz [закадровый двухголосый, Екатеринбург Арт]
Аудио 2: французский, DTS, 1509 kbps, 6 ch, 48 kHz [оригинал]
Субтитры 1: русские (на нефранцузскую речь)
Субтитры 2: русские
Субтитры 3: английские
Главы/чаптеры
Общее
Уникальный идентификатор : 199344422290225828522372107855121777025 (0x95F856D6B2B26CC08CFB214D9B128181)
Полное имя : D:\Video\Код неизвестен.2000.BDRip 1080p by msltel.mkv
Формат : Matroska
Версия формата : Version 4
Размер файла : 14,7 Гбайт
Продолжительность : 1 ч. 56 м.
Общий поток : 18,0 Мбит/сек
Название фильма : Rip by msltel
Дата кодирования : UTC 2019-09-09 03:54:59
Программа кодирования : mkvmerge v8.2.0 ('World of Adventure') 64bit
Библиотека кодирования : libebml v1.3.1 + libmatroska v1.4.2

Видео
Идентификатор : 1
Формат : AVC
Формат/Информация : Advanced Video Codec
Профиль формата : High@L4.1
Настройки формата : CABAC / 4 Ref Frames
Параметр CABAC формата : Да
Параметр RefFrames формата : 4 кадра
Идентификатор кодека : V_MPEG4/ISO/AVC
Продолжительность : 1 ч. 56 м.
Битрейт : 16,3 Мбит/сек
Ширина : 1920 пикселей
Высота : 1036 пикселей
Соотношение сторон : 1,85:1
Режим частоты кадров : Постоянный
Частота кадров : 23,976 (24000/1001) кадра/сек
Цветовое пространство : YUV
Субдискретизация насыщенности : 4:2:0
Битовая глубина : 8 бит
Тип развёртки : Прогрессивная
Бит/(Пиксели*Кадры) : 0.342
Размер потока : 13,3 Гбайт (91%)
Библиотека кодирования : x264 core 157 r2935 545de2f
Настройки программы : cabac=1 / ref=4 / deblock=1:-2:-2 / analyse=0x3:0x113 / me=umh / subme=11 / psy=1 / psy_rd=1.00:0.15 / mixed_ref=1 / me_range=32 / chroma_me=1 / trellis=2 / 8x8dct=1 / cqm=0 / deadzone=21,11 / fast_pskip=0 / chroma_qp_offset=-3 / threads=6 / lookahead_threads=1 / sliced_threads=0 / nr=0 / decimate=1 / interlaced=0 / bluray_compat=0 / constrained_intra=0 / bframes=9 / b_pyramid=2 / b_adapt=2 / b_bias=0 / direct=1 / weightb=1 / open_gop=0 / weightp=2 / keyint=230 / keyint_min=23 / scenecut=40 / intra_refresh=0 / rc_lookahead=40 / rc=crf / mbtree=1 / crf=19.0 / qcomp=0.60 / qpmin=0 / qpmax=69 / qpstep=4 / vbv_maxrate=50000 / vbv_bufsize=62500 / crf_max=0.0 / nal_hrd=none / filler=0 / ip_ratio=1.40 / aq=1:1.00
Язык : French
Default : Да
Forced : Нет

Аудио #1
Идентификатор : 2
Формат : AC-3
Формат/Информация : Audio Coding 3
Коммерческое название : Dolby Digital
Идентификатор кодека : A_AC3
Продолжительность : 1 ч. 56 м.
Вид битрейта : Постоянный
Битрейт : 192 Кбит/сек
Каналы : 2 канала
ChannelLayout : L R
Частота : 48,0 КГц
Частота кадров : 31,250 кадров/сек (1536 SPF)
Битовая глубина : 16 бит
Метод сжатия : С потерями
Размер потока : 161 Мбайт (1%)
Заголовок : DVO Екатеринбург Арт
Язык : Russian
ServiceKind/String : Complete Main
Default : Да
Forced : Нет

Аудио #2
Идентификатор : 3
Формат : DTS
Формат/Информация : Digital Theater Systems
Идентификатор кодека : A_DTS
Продолжительность : 1 ч. 56 м.
Вид битрейта : Постоянный
Битрейт : 1509 Кбит/сек
Каналы : 6 каналов
ChannelLayout : C L R Ls Rs LFE
Частота : 48,0 КГц
Частота кадров : 93,750 кадра/сек (512 SPF)
Битовая глубина : 16 бит
Метод сжатия : С потерями
Размер потока : 1,23 Гбайт (8%)
Заголовок : original
Язык : French
Default : Нет
Forced : Нет

Текст #1
Идентификатор : 4
Формат : UTF-8
Идентификатор кодека : S_TEXT/UTF8
Идентификатор кодека/Информация : UTF-8 Plain Text
Продолжительность : 1 ч. 8 м.
Битрейт : 20 бит/сек
ElementCount : 237
Размер потока : 10,4 Кбайт (0%)
Заголовок : русские на нефранцузскую речь
Язык : Russian
Default : Да
Forced : Да

Текст #2
Идентификатор : 5
Формат : UTF-8
Идентификатор кодека : S_TEXT/UTF8
Идентификатор кодека/Информация : UTF-8 Plain Text
Продолжительность : 1 ч. 43 м.
Битрейт : 70 бит/сек
ElementCount : 1067
Размер потока : 53,5 Кбайт (0%)
Заголовок : русские
Язык : Russian
Default : Нет
Forced : Нет

Текст #3
Идентификатор : 6
Формат : UTF-8
Идентификатор кодека : S_TEXT/UTF8
Идентификатор кодека/Информация : UTF-8 Plain Text
Продолжительность : 1 ч. 54 м.
Битрейт : 34 бит/сек
ElementCount : 1023
Размер потока : 29,1 Кбайт (0%)
Заголовок : английские
Язык : English
Default : Нет
Forced : Нет

Меню
00:00:00.000 : en:Chapter 01
00:12:08.519 : en:Chapter 02
00:22:11.204 : en:Chapter 03
00:32:08.760 : en:Chapter 04
00:40:47.945 : en:Chapter 05
00:51:18.617 : en:Chapter 06
00:58:19.329 : en:Chapter 07
01:07:28.044 : en:Chapter 08
01:14:03.188 : en:Chapter 09
01:22:18.892 : en:Chapter 10
01:32:39.011 : en:Chapter 11
01:44:24.007 : en:Chapter 12
piratbit.org



Скачать Код неизвестен через торрент https://d.radikal.ru/d14/1909/a8/a27714dabb18.jpg Скачать фильм Код неизвестен через торрент бесплантно в хорошем качестве О фильме: Париж. Наше время. Жан приезжает к старшему брату, фотокорреспонденту Жоржу, а тот отправляется на очередную войну. Жан ... 5 10 1
Info! Золотая раздача, скачанное не засчитывается.
Торрент: Зарегистрирован [2019-09-09 07:40] · скачан: 6 раз
Статус: √ проверено
Размер: 14.72 GB
Как cкачать? Как скачать Код неизвестен через торрент | qTorrent

% Раздел Тема Автор DL S | L
Фильмы [HD 720p, 1080p] (Хороший звук DUB, MVO) [ 5.3 GB ] Код неизвестен / Code inconnu: Récit incomplet de divers voyages [2000 BDRip 720p by msltel] DVO msltel Скачать
2 | 0


>> Регистрируемся здесь <<






Отзывы и комментарии о схеме читаем и пишем здесь: ---> Отзывы и комментарии о схеме

Новые благодарочки в телеграм довольных пользователей:
скриншот   скриншот   скриншот   скриншот   скриншот
    Дорогой пользователь! Огромная просьба, поблагодарите релизера, оцените раздачу и оставьте свои комментарий, если Вы скачали Код неизвестен через торрент бесплатно! Внесите свою лепту в развитие PiratBit!
    Комментировать посты могут только пользователи прошедшие не сложную регистрацию
    Показать сообщения:    

    Код неизвестен через торрент
    Скачать бесплатно Код неизвестен
    Код неизвестен скачать торрент
    Код неизвестен смотреть онлайн
    Cкачать фильм Код неизвестен бесплатно
    Код неизвестен скачать торрент в хорошем качестве
    Код неизвестен смотреть онлайн бесплатно в хорошем качестве


    Вы не можете начинать темы
    Вы не можете отвечать на сообщения
    Вы не можете редактировать свои сообщения
    Вы не можете удалять свои сообщения
    Вы не можете голосовать в опросах
    Вы не можете прикреплять файлы к сообщениям
    Вы можете скачивать файлы