MEGA SALE -50% FORZA HORIZON 4 ULTIMATE+ВСЕ DLC+ОНЛАЙН всего за 599р. 299 руб. (супер цена). Внимание количество ограничено!!!

iTunes

1+1

iTunes

мы

iTunes

1

iTunes

Чернобыль

iTunes

Ральф против интернета

Лицензия

ПШазам

Лицензия

Игра престолов

Лицензия

30
pack

ВАЖНО

!!Акция!!

Alien_RageХит недели

RePack

Resident Evil 21

ИГРА 18+

pack

RePack

Metro:Exodus

!!Акция!!

Alien_Rage

RePack

fifa19

RePack

Assassins Creed: Odyssey

RePack

NEED FOR SPEED™ PAYBACK

3 сезон

9 сезон

Бесстыжие 9 сезон

Все сериалы

все сериалы на PB.wtf

RePack

FAR CRY 5
Ребята, катастрофически не хватает 7730р. для оплаты серверов за АВГУСТ (всвязи с блокировками трафик упал в 3 раза), 1-2р., выручайте.
  

Русская невеста / The Russian Bride (Майкл С. Ойеда) [2019, Ужасы, триллер, WEB-DL 720p] MVO [iTunes] piratbit.org

Русская невеста через торрент piratbit.org

Раздают: 7 [ 77 KB/s ]
Размер: 3.13 GB | Добавлен: 9 д. назад | Торрент скачан:81 раз
Скачать  

09-09-2019 13:27 Русская невеста Скачать торрент  

Русская невеста / The Russian Bride
Год выпуска: 2019
Страна: США
Жанр: Ужасы, триллер
Продолжительность: 01:41:24
Перевод: Профессиональный (многоголосый) | iTunes
Субтитры: Английские

Режиссер: Майкл С. Ойеда

rating

В ролях: Корбин Бернсен, Оксана Орлан, Кристина Пименова, Лиза Гудман, Майкл Роберт Брэндон, Элисон Корман, Кинэн Джонстон, Грегори О'Галлахер, Ефим Сомен, Кеннет Г. Боден

Описание: Мать-одиночка Нина желает переехать в США, чтобы дать своей дочери Даше лучшую жизнь. В интернете она знакомится с Карлом — богатым вдовцом и бывшим пластическим хирургом, готовым обеспечить Нине и Даше безбедное будущее. Вскоре женщина вместе с дочерью прилетает в Америку, где их ожидает новый глава семьи, живущий в роскошном особняке. Несмотря на весьма странную прислугу, Нина, окруженная заботой и лаской Карла, не может нарадоваться чудесными изменениями в своей жизни, совершенно не подозревая о истинных планах коварного супруга...

Качество: WEB-DL 720p
Формат: MKV

Видео: MPEG-4 AVC, 1280x536, 4042 Kbit/s, 23.976 fps
Аудио: 48 kHz, AC3, 5.1, 384 Kbps | iTunes | RUS |
скриншот  скриншот  скриншот  

Общее
Уникальный идентификатор : 190889223313729659336152647151924371940 (0x8F9BED5800D69747CE7B3DBD4C8D61E4)
Полное имя : C:\The.Russian.Bride.WEB-DL.720p.pk.mkv
Формат : Matroska
Версия формата : Version 4
Размер файла : 3,13 Гбайт
Продолжительность : 1 ч. 41 м.
Общий поток : 4427 Кбит/сек
Название фильма : The Russian Bride (2019) WEB-DL 720p
Дата кодирования : UTC 2019-09-09 09:51:42
Программа кодирования : mkvmerge v37.0.0 ('Leave It') 64-bit
Библиотека кодирования : libebml v1.3.9 + libmatroska v1.5.2

Видео
Идентификатор : 1
Формат : AVC
Формат/Информация : Advanced Video Codec
Профиль формата : Main@L3.1
Настройки формата : 2 Ref Frames
Параметр CABAC формата : Нет
Параметр RefFrames формата : 2 кадра
Идентификатор кодека : V_MPEG4/ISO/AVC
Продолжительность : 1 ч. 41 м.
Битрейт : 4042 Кбит/сек
Ширина : 1280 пикселей
Высота : 536 пикселей
Соотношение сторон : 2,40:1
Режим частоты кадров : Постоянный
Частота кадров : 24,000 кадра/сек
Цветовое пространство : YUV
Субдискретизация насыщенности : 4:2:0
Битовая глубина : 8 бит
Тип развёртки : Прогрессивная
Бит/(Пиксели*Кадры) : 0.240
Размер потока : 2,80 Гбайт (89%)
Язык : English
Default : Да
Forced : Нет
Цветовой диапазон : Limited
Основные цвета : BT.709
Характеристики трансфера : BT.709
Коэффициенты матрицы : BT.709

Аудио
Идентификатор : 2
Формат : AC-3
Формат/Информация : Audio Coding 3
Коммерческое название : Dolby Digital
Идентификатор кодека : A_AC3
Продолжительность : 1 ч. 41 м.
Вид битрейта : Постоянный
Битрейт : 384 Кбит/сек
Каналы : 6 каналов
ChannelLayout : L R C LFE Ls Rs
Частота : 48,0 КГц
Частота кадров : 31,250 кадров/сек (1536 SPF)
Битовая глубина : 16 бит
Метод сжатия : С потерями
Размер потока : 278 Мбайт (9%)
Заголовок : Russian MVO iTunes
Язык : Russian
ServiceKind/String : Complete Main
Default : Да
Forced : Нет

Меню
00:00:00.000 : en:Глава 1
00:02:42.041 : en:Глава 2
00:06:22.499 : en:Глава 3
00:16:16.124 : en:Глава 4
00:26:57.999 : en:Глава 5
00:31:03.790 : en:Глава 6
00:38:16.581 : en:Глава 7
00:46:54.914 : en:Глава 8
00:57:52.955 : en:Глава 9
01:09:39.371 : en:Глава 10
01:15:52.662 : en:Глава 11
01:24:51.745 : en:Глава 12
01:32:21.453 : en:Глава 13

piratbit.org



Скачать Русская невеста через торрент https://img15.lostpic.net/2019/09/08/79ff08dc5876b83255b264078096575c.jpg Скачать фильм Русская невеста через торрент бесплантно в хорошем качестве Описание: Мать-одиночка Нина желает переехать в США, чтобы дать своей дочери Даше лучшую жизнь. В интернете она знакомится с Карлом — ... 10 10 4
Торрент: Зарегистрирован [2019-09-09 13:27] · скачан: 81 раз
Статус: √ проверено
Размер: 3.13 GB
Как cкачать? Как скачать Русская невеста через торрент | qTorrent

% Раздел Тема Автор DL S | L
Фильмы 2019 [DVDrip, WEB-DLRip, HDrip] (DUB, MVO) [ 1.46 GB ] Русская невеста / The Russian Bride [2019 WEB-DLRip] [MVO] killermax2013 Скачать
10 | 1
Фильмы (WEB-DL 720p, 1080p) [ 7.23 GB ] Русская невеста / The Russian Bride [2019 WEB-DL 1080p] MVO bober100 Скачать
8 | 0
T Фильмы (WEB-DL 720p, 1080p) [ 7.09 GB ] Русская невеста / The Russian Bride [2019 WEB-DL 1080p] MVO [HDRezka Studio] bober100 Скачать
1 | 0


>> Регистрируемся здесь <<






Отзывы и комментарии о схеме читаем и пишем здесь: ---> Отзывы и комментарии о схеме

Новые благодарочки в телеграм довольных пользователей:
скриншот   скриншот   скриншот   скриншот   скриншот
    Дорогой пользователь! Огромная просьба, поблагодарите релизера, оцените раздачу и оставьте свои комментарий, если Вы скачали Русская невеста через торрент бесплатно! Внесите свою лепту в развитие PiratBit!
    Комментировать посты могут только пользователи прошедшие не сложную регистрацию
    Показать сообщения:    

    Русская невеста через торрент
    Скачать бесплатно Русская невеста
    Русская невеста скачать торрент
    Русская невеста смотреть онлайн
    Cкачать фильм Русская невеста бесплатно
    Русская невеста скачать торрент в хорошем качестве
    Русская невеста смотреть онлайн бесплатно в хорошем качестве


    Вы не можете начинать темы
    Вы не можете отвечать на сообщения
    Вы не можете редактировать свои сообщения
    Вы не можете удалять свои сообщения
    Вы не можете голосовать в опросах
    Вы не можете прикреплять файлы к сообщениям
    Вы можете скачивать файлы