MEGA SALE -50% FORZA HORIZON 4 ULTIMATE+ВСЕ DLC+ОНЛАЙН всего за 599р. 299 руб. (супер цена). Внимание количество ограничено!!!

iTunes

1+1

iTunes

мы

iTunes

1

iTunes

Чернобыль

iTunes

Ральф против интернета

Лицензия

ПШазам

Лицензия

Игра престолов

Лицензия

30
pack

ВАЖНО

!!Акция!!

Alien_RageХит недели

RePack

Resident Evil 21

ИГРА 18+

pack

RePack

Metro:Exodus

!!Акция!!

Alien_Rage

RePack

fifa19

RePack

Assassins Creed: Odyssey

RePack

NEED FOR SPEED™ PAYBACK

3 сезон

9 сезон

Бесстыжие 9 сезон

Все сериалы

все сериалы на PB.wtf

RePack

FAR CRY 5
Ребята, катастрофически не хватает 7730р. для оплаты серверов за АВГУСТ (всвязи с блокировками трафик упал в 3 раза), 1-2р., выручайте.
  

21 час в Мюнхене / 21 Hours at Munich (Уильям А. Грэм) [1976, триллер, драма, история, спорт, BDRip 720p by msltel] DVO, AVO piratbit.org

21 час в Мюнхене через торрент piratbit.org

Раздают: 2 [ 0 KB/s ]
Размер: 5.41 GB | Добавлен: 9 д. назад | Торрент скачан:7 раз
Скачать  

10-09-2019 06:47 21 час в Мюнхене Скачать торрент  

Название: 21 час в Мюнхене
Оригинальное название: 21 Hours at Munich
Год выпуска: 1976
Страна: США
Жанр: триллер, драма, история, спорт
Продолжительность: 01:41:01
Перевод: профессиональный двухголосый, авторский

Режиссер: Уильям А. Грэм
В ролях: Уильям Холден, Ширли Найт, Франко Неро, Ричард Бейсхарт, Энтони Куэйл, Ноэл Уиллмен, Георг Маришка, Пол Л. Смит, Мартин Гилат, Елсе Яуецке

О фильме: Повествование о трагических событиях Мюнхенской олимпиады 1972 года, когда группа арабских террористов из организации "Чёрный сентябрь" взяла в заложники одиннадцать израильских спортсменов. В фильме досконально воссозданы события тех дней. Все съёмки проходили на месте реальных событий... Фильм снят по книге Сержа Гроссарда "The blood of Israel".



Качество: BDRip 720p
Формат: MKV
Видео: MPEG-4 AVC, 7082 Кбит/с, 1280x694, 23.976 кадр/с
Аудио 1: русский, AC3, 192 kbps, 2 ch, 48 kHz [закадровый двухголосый, HTB+]
Аудио 2: русский, AC3, 192 kbps, 2 ch, 48 kHz [авторский, Алексей Яковлев]
Аудио 3: английский, AC3, 192 kbps, 2 ch, 48 kHz [оригинал]
Субтитры: английские
Главы/чаптеры
Общее
Уникальный идентификатор : 250056950530305912036471298585939136783 (0xBC1F3785A26095328FBAEE0C631BD10F)
Полное имя : D:\Video\21 час в Мюнхене.1976.BDRip 720p by msltel.mkv
Формат : Matroska
Версия формата : Version 4
Размер файла : 5,41 Гбайт
Продолжительность : 1 ч. 41 м.
Общий поток : 7661 Кбит/сек
Название фильма : Rip by msltel
Дата кодирования : UTC 2019-09-10 01:53:41
Программа кодирования : mkvmerge v8.2.0 ('World of Adventure') 64bit
Библиотека кодирования : libebml v1.3.1 + libmatroska v1.4.2

Видео
Идентификатор : 1
Формат : AVC
Формат/Информация : Advanced Video Codec
Профиль формата : High@L4.1
Настройки формата : CABAC / 9 Ref Frames
Параметр CABAC формата : Да
Параметр RefFrames формата : 9 кадров
Идентификатор кодека : V_MPEG4/ISO/AVC
Продолжительность : 1 ч. 41 м.
Битрейт : 7082 Кбит/сек
Ширина : 1280 пикселей
Высота : 694 пикселя
Соотношение сторон : 1,85:1
Режим частоты кадров : Постоянный
Частота кадров : 23,976 (24000/1001) кадра/сек
Цветовое пространство : YUV
Субдискретизация насыщенности : 4:2:0
Битовая глубина : 8 бит
Тип развёртки : Прогрессивная
Бит/(Пиксели*Кадры) : 0.333
Размер потока : 5,00 Гбайт (92%)
Библиотека кодирования : x264 core 157 r2935 545de2f
Настройки программы : cabac=1 / ref=9 / deblock=1:-2:-2 / analyse=0x3:0x113 / me=umh / subme=11 / psy=1 / psy_rd=1.00:0.15 / mixed_ref=1 / me_range=32 / chroma_me=1 / trellis=2 / 8x8dct=1 / cqm=0 / deadzone=21,11 / fast_pskip=0 / chroma_qp_offset=-3 / threads=6 / lookahead_threads=1 / sliced_threads=0 / nr=0 / decimate=1 / interlaced=0 / bluray_compat=0 / constrained_intra=0 / bframes=13 / b_pyramid=2 / b_adapt=2 / b_bias=0 / direct=1 / weightb=1 / open_gop=0 / weightp=2 / keyint=230 / keyint_min=23 / scenecut=40 / intra_refresh=0 / rc_lookahead=40 / rc=crf / mbtree=1 / crf=20.8 / qcomp=0.60 / qpmin=0 / qpmax=69 / qpstep=4 / vbv_maxrate=50000 / vbv_bufsize=62500 / crf_max=0.0 / nal_hrd=none / filler=0 / ip_ratio=1.40 / aq=1:1.00
Язык : English
Default : Да
Forced : Нет

Аудио #1
Идентификатор : 2
Формат : AC-3
Формат/Информация : Audio Coding 3
Коммерческое название : Dolby Digital
Идентификатор кодека : A_AC3
Продолжительность : 1 ч. 41 м.
Вид битрейта : Постоянный
Битрейт : 192 Кбит/сек
Каналы : 2 канала
ChannelLayout : L R
Частота : 48,0 КГц
Частота кадров : 31,250 кадров/сек (1536 SPF)
Битовая глубина : 16 бит
Метод сжатия : С потерями
Размер потока : 139 Мбайт (3%)
Заголовок : DVO HTB+
Язык : Russian
ServiceKind/String : Complete Main
Default : Да
Forced : Нет

Аудио #2
Идентификатор : 3
Формат : AC-3
Формат/Информация : Audio Coding 3
Коммерческое название : Dolby Digital
Идентификатор кодека : A_AC3
Продолжительность : 1 ч. 41 м.
Вид битрейта : Постоянный
Битрейт : 192 Кбит/сек
Каналы : 2 канала
ChannelLayout : L R
Частота : 48,0 КГц
Частота кадров : 31,250 кадров/сек (1536 SPF)
Битовая глубина : 16 бит
Метод сжатия : С потерями
Размер потока : 139 Мбайт (3%)
Заголовок : Алексей Яковлев
Язык : Russian
ServiceKind/String : Complete Main
Default : Нет
Forced : Нет

Аудио #3
Идентификатор : 4
Формат : AC-3
Формат/Информация : Audio Coding 3
Коммерческое название : Dolby Digital
Идентификатор кодека : A_AC3
Продолжительность : 1 ч. 41 м.
Вид битрейта : Постоянный
Битрейт : 192 Кбит/сек
Каналы : 2 канала
ChannelLayout : L R
Частота : 48,0 КГц
Частота кадров : 31,250 кадров/сек (1536 SPF)
Битовая глубина : 16 бит
Метод сжатия : С потерями
Размер потока : 139 Мбайт (3%)
Заголовок : original
Язык : English
ServiceKind/String : Complete Main
Default : Нет
Forced : Нет

Текст
Идентификатор : 5
Формат : UTF-8
Идентификатор кодека : S_TEXT/UTF8
Идентификатор кодека/Информация : UTF-8 Plain Text
Продолжительность : 1 ч. 37 м.
Битрейт : 52 бит/сек
ElementCount : 798
Размер потока : 37,6 Кбайт (0%)
Заголовок : англтйские
Язык : English
Default : Нет
Forced : Нет

Меню
00:00:00.000 : :Chapter 1
00:12:51.061 : :Chapter 2
00:27:26.102 : :Chapter 3
00:36:02.869 : :Chapter 4
00:46:55.771 : :Chapter 5
00:59:48.626 : :Chapter 6
01:11:21.193 : :Chapter 7
01:26:36.232 : :Chapter 8
01:41:01.680 : :Chapter 9
piratbit.org



Скачать 21 час в Мюнхене через торрент https://a.radikal.ru/a16/1909/45/373435407277.jpg Скачать фильм 21 час в Мюнхене через торрент бесплантно в хорошем качестве О фильме: Повествование о трагических событиях Мюнхенской олимпиады 1972 года, когда группа арабских террористов из организации "Чёрный ... 10 10 1
Торрент: Зарегистрирован [2019-09-10 06:47] · скачан: 7 раз
Статус: √ проверено
Размер: 5.41 GB
Как cкачать? Как скачать 21 час в Мюнхене через торрент | qTorrent

% Раздел Тема Автор DL S | L
Фильмы [HD 720p, 1080p] (Хороший звук DUB, MVO) [ 14.16 GB ] 21 час в Мюнхене / 21 Hours at Munich [1976 история BDRip 1080p by msltel] DVO AVO msltel Скачать
2 | 0


>> Регистрируемся здесь <<






Отзывы и комментарии о схеме читаем и пишем здесь: ---> Отзывы и комментарии о схеме

Новые благодарочки в телеграм довольных пользователей:
скриншот   скриншот   скриншот   скриншот   скриншот
    Дорогой пользователь! Огромная просьба, поблагодарите релизера, оцените раздачу и оставьте свои комментарий, если Вы скачали 21 час в Мюнхене через торрент бесплатно! Внесите свою лепту в развитие PiratBit!
    Комментировать посты могут только пользователи прошедшие не сложную регистрацию
    Показать сообщения:    

    21 час в Мюнхене через торрент
    Скачать бесплатно 21 час в Мюнхене
    21 час в Мюнхене скачать торрент
    21 час в Мюнхене смотреть онлайн
    Cкачать фильм 21 час в Мюнхене бесплатно
    21 час в Мюнхене скачать торрент в хорошем качестве
    21 час в Мюнхене смотреть онлайн бесплатно в хорошем качестве


    Вы не можете начинать темы
    Вы не можете отвечать на сообщения
    Вы не можете редактировать свои сообщения
    Вы не можете удалять свои сообщения
    Вы не можете голосовать в опросах
    Вы не можете прикреплять файлы к сообщениям
    Вы можете скачивать файлы