Достать ножи: Стеклянная луковица

MVO

Добыча

Дубляж

Уэнсдэй

1 сезон

Тор

Дубляж

13 клиническая

1 сезон

Жестокая ночь

MVO

Одни из нас

1 сезон

Deluxe

pack

Рекомендуем

30

Пиратка

ВАЖНО

ВАЖНО

Ghostwire

Пиратка

jed

RePack

nioh2

RePack

RDR2

RePack

NEED FOR SPEED™ PAYBACK

RePack

скачать торрент

Кинопоиск HD

Острые козырьки 6 сезон

6 сезон

FAR CRY 6

RePack

скачать торрент

Лицензия

скачать торрент

MVO

1

1 сезон

скачать торрент

1 сезон

скачать торрент

Лицензия

  

Тюряга / Взаперти / Lock Up (Джон Флинн) [1989, боевик, драма, криминал, UHD BDRemux 2160p] [Dolby Vision TV] 2xMVO+AVO

Тюряга через торрент piratbit.org

Размер: 54.75 GB | Добавлен: 3 года 4 мес. назад | Торрент скачан:7 раз
Смотреть онлайн | Скачать | Поддержите нас   

10-09-2019 09:56 Тюряга Скачать торрент  

Тюряга / Взаперти / Lock Up
Год выпуска: 1989
Страна: США
Жанр: боевик, драма, криминал
Продолжительность: 01:48:54
Перевод: Профессиональный многоголосый, Авторский
Cубтитры: Русские

Режиссер: Джон Флинн / John Flynn

В ролях: Сильвестр Сталлоне, Дональд Сазерленд, Джон Эймос, Сонни Лэндэм, Том Сайзмор, Фрэнк МакРей, Дарлэнн Флюгел, Уильям Аллен Янг, Ларри Романо, Джордан Лунд

Описание: Свободолюбивый Фрэнк Леоне, борец за справедливость, оказавшийся в тюрьме, уверен, что через несколько месяцев покинет ее стены. Он — примерный заключенный, но некоторые тюремщики до сих пор помнят совершенный им побег, закончившийся дополнительным сроком для Фрэнка и испорченной карьерой директора колонии. Пострадавший директор давно «имеет зуб» на него, поэтому в одно чудесное утро героя неожиданно переводят в другую тюрьму, настоящий ад, где служит начальником тот самый Уорден Драмгул. На его послужном списке теперь пятно по вине Фрэнка, и поэтому он клянется устроить заключенному Леоне веселую жизнь, спровоцировать того на побег и доказать, что ненавистный ему зек неисправим. Драмгул — настоящий диктатор в колонии, приказы которого беспрекословно исполняются охранниками и арестантами, и теперь он желает, чтобы Фрэнк как можно дольше задержался в стенах тюрьмы Гетвей.



Качество: UHD BDRemux 2160p | Dolby Vision TV
Формат: MP4

Видео: HEVC HEVC, 67.5 Мбит/с, 3840x2160
Аудио#1: AC3, 6 ch, 448 Кбит/с - Профессиональный многоголосый R5.
Аудио#2: AAC LC, 6ch, 683 Кбит/с - авторский одноголосый (Дохалов).
Аудио#3: AC-3, 2ch, 224 Кбит/с - Профессиональный многоголосый РТР.
Данный вид релизов (контейнер MP4) предназначен для встроенного в ТВ (соответственно, с поддержкой DV) плеер.
Т.Е. Можно использовать как USB flash/HDD, так и DLNA / Plex - подобные сервисы/программы. дополнительный-внешний плеер не обязателен.

Внимание!
На моделях LG 2016 возможны сюрпризы "через раз", 2017-2018 должно идти без сюрпризов )
скриншот  скриншот  скриншот  

Общее
Полное имя : C:\Lock Up.Тюряга.1989.DV.BDRemux\Lock Up.mp4
Формат : MPEG-4
Профиль формата : Base Media / Version 2
Идентификатор кодека : mp42 (mp42/dby1/isom)
Размер файла : 54,8 Гбайт
Продолжительность : 1 ч. 48 м.
Режим общего битрейта : Переменный
Общий поток : 72,1 Мбит/сек
Дата кодирования : UTC 2019-09-10 03:01:01
Дата пометки : UTC 2019-09-10 03:01:01

Видео #1
Идентификатор : 1
Формат : HEVC
Формат/Информация : High Efficiency Video Coding
Профиль формата : Main 10@L5.1@High
HDR_Format/String : SMPTE ST 2086, HDR10 compatible
Идентификатор кодека : hev1
Идентификатор кодека/Информация : High Efficiency Video Coding
Продолжительность : 1 ч. 48 м.
Битрейт : 67,5 Мбит/сек
Ширина : 3840 пикселей
Высота : 2160 пикселей
Соотношение сторон : 16:9
Режим частоты кадров : Постоянный
Частота кадров : 24,000 кадра/сек
Цветовое пространство : YUV
Субдискретизация насыщенности : 4:2:0 (Type 2)
Битовая глубина : 10 бит
Бит/(Пиксели*Кадры) : 0.339
Размер потока : 51,2 Гбайт (94%)
Default : Нет
Дата кодирования : UTC 2019-09-10 03:01:01
Дата пометки : UTC 2019-09-10 03:01:01
Цветовой диапазон : Limited
Основные цвета : BT.2020
Характеристики трансфера : PQ
Коэффициенты матрицы : BT.2020 non-constant
MasteringDisplay_ColorPrimaries : Display P3
MasteringDisplay_Luminance : min: 0.0001 cd/m2, max: 1000 cd/m2
MaxCLL : 987 cd/m2
MaxFALL : 407 cd/m2
Codec configuration box : hvcC

Видео #2
Идентификатор : 2
Формат : HEVC
Формат/Информация : High Efficiency Video Coding
Профиль формата : Main 10@L5.1@High
HDR_Format/String : Dolby Vision, Version 1.0, dvhe.07.06, EL+RPU / SMPTE ST 2086, HDR10 compatible
Идентификатор кодека : dvhe
Идентификатор кодека/Информация : High Efficiency Video Coding with Dolby Vision
Продолжительность : 1 ч. 48 м.
Битрейт : 3266 Кбит/сек
Ширина : 1920 пикселей
Высота : 1080 пикселей
Соотношение сторон : 16:9
Режим частоты кадров : Постоянный
Частота кадров : 24,000 кадра/сек
Цветовое пространство : YUV
Субдискретизация насыщенности : 4:2:0 (Type 2)
Битовая глубина : 10 бит
Бит/(Пиксели*Кадры) : 0.066
Размер потока : 2,48 Гбайт (5%)
Default : Нет
Дата кодирования : UTC 2019-09-10 03:01:01
Дата пометки : UTC 2019-09-10 03:01:01
Цветовой диапазон : Limited
Основные цвета : BT.2020
Характеристики трансфера : PQ
Коэффициенты матрицы : BT.2020 non-constant
MasteringDisplay_ColorPrimaries : Display P3
MasteringDisplay_Luminance : min: 0.0001 cd/m2, max: 1000 cd/m2
Codec configuration box : hvcC+dvcC

Аудио #1
Идентификатор : 3
Формат : AC-3
Формат/Информация : Audio Coding 3
Коммерческое название : Dolby Digital
Идентификатор кодека : ac-3
Продолжительность : 1 ч. 48 м.
Вид битрейта : Постоянный
Битрейт : 448 Кбит/сек
Каналы : 6 каналов
ChannelLayout : L R C LFE Ls Rs
Частота : 48,0 КГц
Частота кадров : 31,250 кадров/сек (1536 SPF)
Битовая глубина : 16 бит
Метод сжатия : С потерями
Размер потока : 348 Мбайт (1%)
ServiceKind/String : Complete Main
Default : Нет
Дата кодирования : UTC 2019-09-10 03:01:01
Дата пометки : UTC 2019-09-10 03:01:01

Аудио #2
Идентификатор : 4
Формат : AAC LC
Формат/Информация : Advanced Audio Codec Low Complexity
Идентификатор кодека : mp4a-40-2
Продолжительность : 1 ч. 48 м.
Вид битрейта : Переменный
Битрейт : 683 Кбит/сек
Максимальный битрейт : 920 Кбит/сек
Каналы : 6 каналов
ChannelLayout : C L R Ls Rs LFE
Частота : 48,0 КГц
Частота кадров : 46,875 кадров/сек (1024 SPF)
Метод сжатия : С потерями
Размер потока : 531 Мбайт (1%)
Default : Нет
Дата кодирования : UTC 2019-09-10 03:01:01
Дата пометки : UTC 2019-09-10 03:01:01

Аудио #3
Идентификатор : 5
Формат : AC-3
Формат/Информация : Audio Coding 3
Коммерческое название : Dolby Digital
Идентификатор кодека : ac-3
Продолжительность : 1 ч. 48 м.
Вид битрейта : Постоянный
Битрейт : 224 Кбит/сек
Каналы : 2 канала
ChannelLayout : L R
Частота : 48,0 КГц
Частота кадров : 31,250 кадров/сек (1536 SPF)
Битовая глубина : 16 бит
Метод сжатия : С потерями
Размер потока : 174 Мбайт (0%)
ServiceKind/String : Complete Main
Default : Нет
Дата кодирования : UTC 2019-09-10 03:01:01
Дата пометки : UTC 2019-09-10 03:01:01




Скачать Тюряга через торрент http://img12.lostpic.net/2018/03/27/b73097dab159e06fa44967fed8dcafc1.jpg Скачать, смотреть онлайн Тюряга бесплантно в хорошем качестве Описание: Свободолюбивый Фрэнк Леоне, борец за справедливость, оказавшийся в тюрьме, уверен, что через несколько месяцев покинет ее стены. ... 10 10 2
Торрент: Зарегистрирован [2019-09-10 09:57] · скачан: 7 раз
Статус: √ проверено
Размер: 54.75 GB
Как cкачать? Как скачать Тюряга через торрент | UTorrent

% Раздел Тема Автор DL S | L
Фильмы [HD 720p, 1080p] (Хороший звук DUB, MVO) [ 16.39 GB ] Тюряга / Взаперти / Lock Up | MVO | 1080p Леонид Ильич Скачать
1 | 0

28-11-2019 20:33  


Отключить вcю реклaмy на сайте, в т.ч. и в плеере онлайн просмотра!

    Дорогой пользователь! Огромная просьба, поблагодарите релизера, оцените раздачу и оставьте свои комментарий, если Вы скачали Тюряга через торрент бесплатно!!
    Комментировать посты могут только пользователи прошедшие не сложную регистрацию
    Показать сообщения:    


    Тюряга через торрент
    Скачать бесплатно Тюряга
    Тюряга скачать торрент
    Тюряга смотреть онлайн
    Cкачать фильм Тюряга бесплатно
    Тюряга скачать торрент в хорошем качестве
    Тюряга смотреть онлайн бесплатно в хорошем качестве
    Вы не можете начинать темы
    Вы не можете отвечать на сообщения
    Вы не можете редактировать свои сообщения
    Вы не можете удалять свои сообщения
    Вы не можете голосовать в опросах
    Вы не можете прикреплять файлы к сообщениям
    Вы можете скачивать файлы
    Тюряга / Взаперти / Lock Up [1989, боевик, драма, криминал, UHD BDRemux 2160p] [Dolby Vision TV] 2xMVO+AVO смотреть онлайн, скачать торрент picoco.icu