2 сезон

iTunes

WEBRip

1

2 сезон

iTunes

1 сезон

1 сезон

RePack

30

Ultimate

ВАЖНО

ИГРА 18+

pack

RePack

MK11
pack

Легкие деньги

RePack

jed

RePack

fifa19

RePack

RDR2

RePack

NEED FOR SPEED™ PAYBACK

4 сезон

9 сезон

Бесстыжие 9 сезон

Все сериалы

все сериалы на PB.wtf

RePack

FAR CRY 5

Anonymous, доброй ночи, мы не успеваем собрать деньги на оплату серверов за февраль, помогите нам пожалуйста в это трудное время. В качестве благодарности мы отключим Вам всю рекламу на сайте (укажите свой ник в строку Ваше имя)!

×
  
Magnet ссылка

Yesterday / Yesterday (Дэнни Бойл) [2019 г., Мюзикл, фэнтези, мелодрама, комедия, музыка, WEB-DL 1080p] [Ukr DUB] piratbit.org

Yesterday через торрент piratbit.org

Размер: 4.16 GB | Добавлен: 1 год 5 мес. назад | Торрент скачан:28 раз
Скачать  

10-09-2019 17:40 Yesterday Скачать торрент  

Yesterday / Yesterday
Год выпуска: 2019
Страна: Великобритания, США
Жанр: Мюзикл, фэнтези, мелодрама, комедия, музыка
Продолжительность: 01:56:18
Перевод: Украинский (дублированный)

Субтитры: english

Режиссер: Дэнни Бойл

В ролях: Химеш Патель, Лили Джеймс, Софи Ди Мартино, Эллиз Шаппелль, Мира Сайал, Гарри Мишель, Винсент Франклин, Джоэль Фрай, Майкл Киванука, Карма Суд

Описание: Еще месяц назад Джек был обычным неудачником. Теперь он суперзвезда, миллионы людей слушают его песни, билеты на концерты раскупаются за секунду. В чем секрет? Все просто. Джек - единственный человек в мире, кто помнит о существовании The Beatles.

ratingскриншот  

Качество: WEB-DL 1080p
Формат: MKV
Видео: AVC, 1920x796, 23.976 fps, 4 600 Кбит/с
Аудио 1: AC3, 48.0 KHz, 192 Кбит/с, 2 ch - Ukr DUB
Аудио 2: AC3, 48.0 KHz, 384 Кбит/с, 6 ch - Eng
General
Complete name : Yesterday (2019) WEB-DL 1080p [ukr,eng] [ViDeO_Hurtom].mkv
Format : Matroska
Format version : Version 4
File size : 4.16 GiB
Duration : 1 h 56 min
Overall bit rate : 5 118 kb/s
Movie name : Yesterday (2019) WEB-DL 1080p [ukr,eng] [ViDeO_Hurtom]
Encoded date : UTC 2019-09-10 09:17:12
Writing application : mkvmerge v30.1.0 ('Forever And More') 64-bit
Writing library : libebml v1.3.6 + libmatroska v1.4.9
Attachments : Yesterday-3339038.jpg

Video
ID : 1
Format : AVC
Format/Info : Advanced Video Codec
Format profile : High@L4
Format settings : CABAC / 5 Ref Frames
Format settings, CABAC : Yes
Format settings, RefFrames : 5 frames
Codec ID : V_MPEG4/ISO/AVC
Duration : 1 h 56 min
Bit rate : 4 539 kb/s
Width : 1 920 pixels
Height : 796 pixels
Display aspect ratio : 2.40:1
Frame rate mode : Constant
Frame rate : 23.976 FPS
Color space : YUV
Chroma subsampling : 4:2:0
Bit depth : 8 bits
Scan type : Progressive
Bits/(Pixel*Frame) : 0.124
Stream size : 3.69 GiB (89%)
Title : Yesterday.2019.1080p.WEB-DL.DD5.1.H264-FGT
Language : English
Default : Yes
Forced : No
Color range : Limited
Color primaries : BT.709
Transfer characteristics : BT.709
Matrix coefficients : BT.709

Audio #1
ID : 2
Format : AC-3
Format/Info : Audio Coding 3
Commercial name : Dolby Digital
Codec ID : A_AC3
Duration : 1 h 56 min
Bit rate mode : Constant
Bit rate : 192 kb/s
Channel(s) : 2 channels
Channel layout : L R
Sampling rate : 48.0 kHz
Frame rate : 31.250 FPS (1536 SPF)
Bit depth : 16 bits
Compression mode : Lossy
Stream size : 160 MiB (4%)
Title : AC3 2.0 | 192 Kbps
Language : Ukrainian
Service kind : Complete Main
Default : Yes
Forced : No

Audio #2
ID : 3
Format : AC-3
Format/Info : Audio Coding 3
Commercial name : Dolby Digital
Codec ID : A_AC3
Duration : 1 h 56 min
Bit rate mode : Constant
Bit rate : 384 kb/s
Channel(s) : 6 channels
Channel layout : L R C LFE Ls Rs
Sampling rate : 48.0 kHz
Frame rate : 31.250 FPS (1536 SPF)
Bit depth : 16 bits
Compression mode : Lossy
Stream size : 319 MiB (8%)
Title : AC3 5.1 | 384 Kbps
Language : English
Service kind : Complete Main
Default : No
Forced : No

Text
ID : 4
Format : UTF-8
Codec ID : S_TEXT/UTF8
Codec ID/Info : UTF-8 Plain Text
Duration : 1 h 55 min
Bit rate : 79 b/s
Count of elements : 2246
Stream size : 67.2 KiB (0%)
Title : Full
Language : English
Default : Yes
Forced : No

Menu
00:00:00.000 : en:1
00:06:17.669 : en:2
00:11:20.680 : en:3
00:16:14.098 : en:4
00:21:29.287 : en:5
00:27:05.538 : en:6
00:33:32.883 : en:7
00:38:56.081 : en:8
00:45:54.249 : en:9
00:48:18.058 : en:10
00:56:25.335 : en:11
01:03:48.485 : en:12
01:09:17.479 : en:13
01:14:18.070 : en:14
01:19:05.607 : en:15
01:24:11.578 : en:16
01:31:52.914 : en:17
01:36:01.578 : en:18
01:40:04.236 : en:19
01:46:52.978 : en:20
01:48:37.539 : en:21
скриншот  скриншот  скриншот  
piratbit.org



Скачать Yesterday через торрент https://i87.fastpic.ru/big/2019/0910/37/b5b353c002bfed0ab5d5225ebf17c537.jpg Скачать фильм Yesterday через торрент бесплантно в хорошем качестве Описание: Еще месяц назад Джек был обычным неудачником. Теперь он суперзвезда, миллионы людей слушают его песни, билеты на концерты ... 10 10 1
Торрент: Зарегистрирован [2019-09-10 17:40] · скачан: 28 раз
Статус: √ проверено
Размер: 4.16 GB
Как cкачать? Как скачать Yesterday через торрент | UTorrent

% Раздел Тема Автор DL S | L
Progressive, Art-Rock (mp3) [ 137 MB ] Deaton LeMay Project - Day After Yesterday 2019 / MP3 / 320 kbps / Progressive-Rock bober100 Скачать
1 | 0
Ultra HD (UHD: 2K, 4K, 8K) — видео сверхвысокой чёткости [ 56.23 GB ] Yesterday / Yesterday [2019 музыка UHD BDRemux 2160p] DUB [] + AVO [C. Визгунов] sheker187 Скачать
1 | 0
Ultra HD (UHD: 2K, 4K, 8K) — видео сверхвысокой чёткости [ 11.82 GB ] Yesterday / Yesterday [2019 Мюзикл музыка UHD BDRip 2160p] DUB [] +AVO [С.Визгунов] bober100 Скачать
1 | 0
Фильмы 2019-2020 [DVDrip, WEB-DLRip, HDrip] (DUB, MVO) [ 747 MB ] Yesterday / Yesterday [2019 Мюзикл музыка BDRip-AVC от OlLanDGroup] DUB [ BD EUR] Skandar2019 Скачать
1 | 0
Фильмы 2019-2020 [DVDrip, WEB-DLRip, HDrip] (DUB, MVO) [ 1.46 GB ] Yesterday / Yesterday [2019 Мюзикл музыка BDRip-AVC от OlLanDGroup] DUB [ BD EUR] Skandar2019 Скачать
1 | 0
Фильмы 2019-2020 [DVDrip, WEB-DLRip, HDrip] (DUB, MVO) [ 2.18 GB ] Yesterday / Yesterday [2019 мюзикл музыка BDRip] - [] Twi7ter Скачать
4 | 0
Фильмы 2019-2020 [DVDrip, WEB-DLRip, HDrip] (DUB, MVO) [ 1.46 GB ] Yesterday / Yesterday [2019 мюзикл музыка BDRip] - [] Twi7ter Скачать
2 | 0

28-11-2019 20:33  

Отключить всю рекламу на сайте

    Дорогой пользователь! Огромная просьба, поблагодарите релизера, оцените раздачу и оставьте свои комментарий, если Вы скачали Yesterday через торрент бесплатно! Внесите свою лепту в развитие PiratBit!
    Комментировать посты могут только пользователи прошедшие не сложную регистрацию
    Показать сообщения:    

    Yesterday через торрент
    Скачать бесплатно Yesterday
    Yesterday скачать торрент
    Yesterday смотреть онлайн
    Cкачать фильм Yesterday бесплатно
    Yesterday скачать торрент в хорошем качестве
    Yesterday смотреть онлайн бесплатно в хорошем качестве


    Вы не можете начинать темы
    Вы не можете отвечать на сообщения
    Вы не можете редактировать свои сообщения
    Вы не можете удалять свои сообщения
    Вы не можете голосовать в опросах
    Вы не можете прикреплять файлы к сообщениям
    Вы можете скачивать файлы