MEGA SALE -50% FORZA HORIZON 4 ULTIMATE+ВСЕ DLC+ОНЛАЙН всего за 599р. 299 руб. (супер цена). Внимание количество ограничено!!!

iTunes

1+1

iTunes

мы

iTunes

1

iTunes

Чернобыль

iTunes

Ральф против интернета

Лицензия

ПШазам

Лицензия

Игра престолов

Лицензия

30
pack

ВАЖНО

!!Акция!!

Alien_RageХит недели

RePack

Resident Evil 21

ИГРА 18+

pack

RePack

Metro:Exodus

!!Акция!!

Alien_Rage

RePack

fifa19

RePack

Assassins Creed: Odyssey

RePack

NEED FOR SPEED™ PAYBACK

3 сезон

9 сезон

Бесстыжие 9 сезон

Все сериалы

все сериалы на PB.wtf

RePack

FAR CRY 5
Ребята, катастрофически не хватает 7730р. для оплаты серверов за АВГУСТ (всвязи с блокировками трафик упал в 3 раза), 1-2р., выручайте.
  

Тёмный кристалл: Эпоха сопротивления / The Dark Crystal: Age of Resistance / Сезон: 1 / Серия: 1-10 из 10 (Луи Летерье) [2019, боевик, фэнтези, приключения, WEB-DL 1080p] MVO [TVShows] piratbit.org

Тёмный кристалл: Эпоха сопротивления через торрент piratbit.org

Размер: 21.26 GB | Добавлен: 7 д. назад | Торрент скачан:7 раз
Скачать  

11-09-2019 08:08 Тёмный кристалл: Эпоха сопротивления Скачать торрент  

Тёмный кристалл: Эпоха сопротивления
The Dark Crystal: Age of Resistance
Производство: Великобритания, США
Год выпуска: 2019
Жанр: боевик, фэнтези, приключения
Продолжительность: ~ 01:00:00 серия
Премьера (мир): 19 июля 2019
Перевод: Профессиональный (многоголосый закадровый) | TVShows
Субтитры: Английские

Режиссёр: Луи Летерье

В ролях: Орландо Блум, Бекки Хендерсон, Нил Стеренберг, Натали Эммануэль, Виктор Йеррид, Тэрон Эджертон, Аня Тейлор-Джой, Элис Диннеан, Дэйв Чэпман, Уоррик Броунлоу-Пайк, Джейсон Айзекс

Описание:
Гелфлинги Риан, Бреа и Дит выясняют, что зловещие скексисы повредили волшебный кристалл, подпитывающий жизнь в мире. Именно благодаря им начинается восстание, способное уничтожить жестоких захватчиков.



Качество: WEB-DL 1080p
Формат: MKV

Видео: MPEG-4 AVC, ~ 5620 Кбит/с, 1920x1080
Аудио Rus: AC3, 48 kHz, 6 ch, 384 kbps |TVShows|
Аудио Eng: E-AC3, 48 kHz, 6 ch, 768 kbps |Original|


Реклама: Отсутствует
скриншот  скриншот  скриншот  скриншот  

Общее
Уникальный идентификатор : 69947223479468477177363813686610880218 (0x349F586081E2413759E31B418B21E6DA)
Полное имя : C:\The.Dark.Crystal.Age.Of.Resistance.S01.1080p.TVShows\The.Dark.Crystal.Age.Of.Resistance.S01E01.1080p.TVShows.mkv
Формат : Matroska
Версия формата : Version 4
Размер файла : 2,84 Гбайт
Продолжительность : 1 ч. 1 м.
Режим общего битрейта : Переменный
Общий поток : 6661 Кбит/сек
Дата кодирования : UTC 2019-09-10 09:28:13
Программа кодирования : mkvmerge v33.1.0 ('Primrose') 64-bit
Библиотека кодирования : libebml v1.3.7 + libmatroska v1.5.0

Видео
Идентификатор : 1
Формат : AVC
Формат/Информация : Advanced Video Codec
Профиль формата : Main@L4
Настройки формата : CABAC / 3 Ref Frames
Параметр CABAC формата : Да
Параметр RefFrames формата : 3 кадра
Идентификатор кодека : V_MPEG4/ISO/AVC
Продолжительность : 1 ч. 1 м.
Вид битрейта : Переменный
Битрейт : 5620 Кбит/сек
Максимальный битрейт : 8430 Кбит/сек
Ширина : 1920 пикселей
Высота : 1080 пикселей
Соотношение сторон : 16:9
Режим частоты кадров : Постоянный
Частота кадров : 23,976 (24000/1001) кадра/сек
Цветовое пространство : YUV
Субдискретизация насыщенности : 4:2:0
Битовая глубина : 8 бит
Тип развёртки : Прогрессивная
Бит/(Пиксели*Кадры) : 0.113
Размер потока : 2,30 Гбайт (81%)
Библиотека кодирования : x264 core 148 r2715 7e75228
Настройки программы : cabac=1 / ref=3 / deblock=1:0:0 / analyse=0x1:0x111 / me=umh / subme=10 / psy=1 / psy_rd=1.00:0.00 / mixed_ref=1 / me_range=24 / chroma_me=1 / trellis=2 / 8x8dct=0 / cqm=0 / deadzone=21,11 / fast_pskip=1 / chroma_qp_offset=-2 / threads=8 / lookahead_threads=1 / sliced_threads=0 / nr=0 / decimate=1 / interlaced=0 / bluray_compat=0 / stitchable=1 / constrained_intra=0 / bframes=2 / b_pyramid=0 / b_adapt=2 / b_bias=0 / direct=3 / weightb=1 / open_gop=0 / weightp=2 / keyint=250 / keyint_min=23 / scenecut=0 / intra_refresh=0 / rc_lookahead=48 / rc=2pass / mbtree=1 / bitrate=5620 / ratetol=1.0 / qcomp=0.50 / qpmin=6 / qpmax=51 / qpstep=4 / cplxblur=20.0 / qblur=0.5 / vbv_maxrate=8430 / vbv_bufsize=11240 / nal_hrd=vbr / filler=0 / ip_ratio=1.40 / aq=1:1.00
Default : Да
Forced : Нет

Аудио #1
Идентификатор : 2
Формат : AC-3
Формат/Информация : Audio Coding 3
Коммерческое название : Dolby Digital
Идентификатор кодека : A_AC3
Продолжительность : 1 ч. 1 м.
Вид битрейта : Постоянный
Битрейт : 384 Кбит/сек
Каналы : 6 каналов
ChannelLayout : L R C LFE Ls Rs
Частота : 48,0 КГц
Частота кадров : 31,250 кадров/сек (1536 SPF)
Битовая глубина : 16 бит
Метод сжатия : С потерями
Размер потока : 168 Мбайт (6%)
Заголовок : TVShows
Язык : Russian
ServiceKind/String : Complete Main
Default : Да
Forced : Да

Аудио #2
Идентификатор : 3
Формат : E-AC-3 JOC
Формат/Информация : Enhanced AC-3 with Joint Object Coding
Коммерческое название : Dolby Digital Plus with Dolby Atmos
Идентификатор кодека : A_EAC3
Продолжительность : 1 ч. 1 м.
Вид битрейта : Постоянный
Битрейт : 768 Кбит/сек
Каналы : 6 каналов
ChannelLayout : L R C LFE Ls Rs
Частота : 48,0 КГц
Частота кадров : 31,250 кадров/сек (1536 SPF)
Метод сжатия : С потерями
Размер потока : 336 Мбайт (12%)
Заголовок : Original
Язык : English
ServiceKind/String : Complete Main
Default : Нет
Forced : Нет
ComplexityIndex : 16
NumberOfDynamicObjects : 15
BedChannelCount/String : 1 канал
BedChannelConfiguration : LFE

Текст
Идентификатор : 4
Формат : UTF-8
Идентификатор кодека : S_TEXT/UTF8
Идентификатор кодека/Информация : UTF-8 Plain Text
Заголовок : English
Язык : English
Default : Нет
Forced : Нет

piratbit.org



Скачать Тёмный кристалл: Эпоха сопротивления через торрент https://i6.imageban.ru/out/2019/09/10/9a616d3b6ab3f9e03329bd486b8fb5f7.png Скачать фильм Тёмный кристалл: Эпоха сопротивления через торрент бесплантно в хорошем качестве Описание:Гелфлинги Риан, Бреа и Дит выясняют, что зловещие скексисы повредили волшебный кристалл, подпитывающий жизнь в мире. Именно ... 10 10 2
Торрент: Зарегистрирован [2019-09-11 08:08] · скачан: 7 раз
Статус: √ проверено
Размер: 21.26 GB
Как cкачать? Как скачать Тёмный кристалл: Эпоха сопротивления через торрент | qTorrent

% Раздел Тема Автор DL S | L
Мультсериалы [ 7.55 GB ] Тёмный кристалл: Эпоха сопротивления / The Dark Crystal: Age of Resistance / Сезон: 1 / Серии: 1-6 из 10 [2019 мультфильм WEB-DL 720p] MVO [AlexFilm] bober100 Скачать
3 | 0
Мультсериалы [ 12.45 GB ] Тёмный кристалл: Эпоха сопротивления / The Dark Crystal: Age of Resistance / Сезон: 1 / Серия: 1-6 из 10 [2019 WEB-DL 1080p] MVO [AlexFilm] bober100 Скачать
2 | 0
Мультсериалы [ 13.89 GB ] Тёмный кристалл: Эпоха сопротивления / The Dark Crystal: Age of Resistance / Сезон: 1 / Серии: 1-10 из 10 [2019 WEB-DL 720p] DUB [Пифагор] bober100 Скачать
4 | 3
Мультсериалы [ 1.1 GB ] Тёмный кристалл: Эпоха сопротивления / The Dark Crystal: Age of Resistance / Сезон: 1 / Серии: 1- из 10 [2019 WEBRip] DUB [Пифагор] bober100 Скачать
1 | 0
Мультсериалы [ 22.17 GB ] Тёмный кристалл: Эпоха сопротивления / The Dark Crystal: Age of Resistance / Сезон: 1 / Серии: 1-10 из 10 [2019 WEBRip 1080p] DUB [Пифагор] bober100 Скачать
3 | 0


>> Регистрируемся здесь <<






Отзывы и комментарии о схеме читаем и пишем здесь: ---> Отзывы и комментарии о схеме

Новые благодарочки в телеграм довольных пользователей:
скриншот   скриншот   скриншот   скриншот   скриншот
    Дорогой пользователь! Огромная просьба, поблагодарите релизера, оцените раздачу и оставьте свои комментарий, если Вы скачали Тёмный кристалл: Эпоха сопротивления через торрент бесплатно! Внесите свою лепту в развитие PiratBit!
    Комментировать посты могут только пользователи прошедшие не сложную регистрацию
    Показать сообщения:    

    Тёмный кристалл: Эпоха сопротивления через торрент
    Скачать бесплатно Тёмный кристалл: Эпоха сопротивления
    Тёмный кристалл: Эпоха сопротивления скачать торрент
    Тёмный кристалл: Эпоха сопротивления смотреть онлайн
    Cкачать фильм Тёмный кристалл: Эпоха сопротивления бесплатно
    Тёмный кристалл: Эпоха сопротивления скачать торрент в хорошем качестве
    Тёмный кристалл: Эпоха сопротивления смотреть онлайн бесплатно в хорошем качестве


    Вы не можете начинать темы
    Вы не можете отвечать на сообщения
    Вы не можете редактировать свои сообщения
    Вы не можете удалять свои сообщения
    Вы не можете голосовать в опросах
    Вы не можете прикреплять файлы к сообщениям
    Вы можете скачивать файлы