MEGA SALE -50% FORZA HORIZON 4 ULTIMATE+ВСЕ DLC+ОНЛАЙН всего за 599р. 299 руб. (супер цена). Внимание количество ограничено!!!

iTunes

1+1

iTunes

мы

iTunes

1

iTunes

Чернобыль

iTunes

Ральф против интернета

Лицензия

ПШазам

Лицензия

Игра престолов

Лицензия

30
pack

ВАЖНО

!!Акция!!

Alien_RageХит недели

RePack

Resident Evil 21

ИГРА 18+

pack

RePack

Metro:Exodus

!!Акция!!

Alien_Rage

RePack

fifa19

RePack

Assassins Creed: Odyssey

RePack

NEED FOR SPEED™ PAYBACK

3 сезон

9 сезон

Бесстыжие 9 сезон

Все сериалы

все сериалы на PB.wtf

RePack

FAR CRY 5
Ребята, катастрофически не хватает 7730р. для оплаты серверов за АВГУСТ (всвязи с блокировками трафик упал в 3 раза), 1-2р., выручайте.
  

Рядовой Бенджамин / Private Benjamin (Ховард Зифф / Howard Zieff) [1980, Комедия, WEB-DLRip 720p от KORSAR] 2хMVO + AVO (Володарский) piratbit.org

Рядовой Бенджамин через торрент piratbit.org

Раздают: 1 [ 0 KB/s ]
Размер: 5.58 GB | Добавлен: 8 д. назад | Торрент скачан:12 раз
Скачать  

11-09-2019 12:34 Рядовой Бенджамин Скачать торрент  

Рядовой Бенджамин / Private Benjamin

Год выпуска: 1980
Страна: США
Жанр: комедия
Продолжительность: 01:49:47
Перевод1: Профессиональный (многолосый закадровый)
Перевод2: Авторский (одноголосый закадровый)(Л. Володарский)
Субтитры: английские
Оригинальная аудиодорожка: английский
Режиссер: Ховард Зифф / Howard Zieff
В ролях: Голди Хоун, Айлин Бреннан, Арманд Ассанте, Роберт Уэббер, Сэм Уонамейкер, Барбара Барри, Мэри Кэй Плэйс, Гарри Дин Стэнтон, Альберт Брукс, Алан Оппенхаймер и др.

Описание: После серьезного душевного потрясения девушка из хорошей семьи поступает на службу в вооруженные силы. Казалось бы, армия — не самое лучшее место для девушек, но для нашей героини казарма оказалась чуть ли не единственным местом, где она чувствует себя в своей тарелке...

Релиз от:

Качество: WEB-DLRip 720p
Формат: MKV

Видео: MPEG-4 AVC, 6224 Кбит/сек, 1276x720, 23,976 кадра/сек
Аудио #1: AC3, 2 ch, 128 Кбит/сек | Русский, профессиональный (многоголосый закадровый) СТС
Аудио #2: AC3, 2 ch, 160 Кбит/сек | Русский, профессиональный (многоголосый закадровый) Варус видео
Аудио #3: AC3, 6 ch, 384 Кбит/сек | Русский, авторский (одноголосый закадровый) Леонид Володарский
Аудио #4: AC3, 6 ch, 384 Кбит/сек | Английский, оригинал
x264 [info]: frame I:924 Avg QP:14.77 size: 166060
x264 [info]: frame P:33807 Avg QP:17.50 size: 68249
x264 [info]: frame B:123211 Avg QP:19.48 size: 21815
-----------------------------------------------------
Общее
Уникальный идентификатор : 232033242394332223542088138480992979022 (0xAE8FFA1A2F58E0E7ACBF3D58F1B9084E)
Полное имя : Private.Benjamin.1980.WEBRip.720p.mkv
Формат : Matroska
Версия формата : Version 2
Размер файла : 5,58 Гбайт
Продолжительность : 1 ч. 49 м.
Общий поток : 7273 Кбит/сек
Дата кодирования : UTC 2017-07-28 05:03:57
Программа кодирования : mkvmerge v5.8.0 ('No Sleep / Pillow') built on Sep 2 2012 15:37:04
Библиотека кодирования : libebml v1.2.3 + libmatroska v1.3.0

Видео
Идентификатор : 1
Формат : AVC
Формат/Информация : Advanced Video Codec
Профиль формата : High@L4.1
Параметр CABAC формата : Да
Параметр RefFrames формата : 9 кадров
Идентификатор кодека : V_MPEG4/ISO/AVC
Продолжительность : 1 ч. 49 м.
Битрейт : 6224 Кбит/сек
Ширина : 1276 пикселей
Высота : 720 пикселей
Соотношение сторон : 16:9
Режим частоты кадров : Постоянный
Частота кадров : 23,976 (24000/1001) кадра/сек
Цветовое пространство : YUV
Субдискретизация насыщенности : 4:2:0
Битовая глубина : 8 бит
Тип развёртки : Прогрессивная
Бит/(Пиксели*Кадры) : 0.283
Размер потока : 4,66 Гбайт (83%)
Заголовок : RIP | MZMA
Библиотека кодирования : x264 core 148 r2638 7599210
Настройки программы : cabac=1 / ref=9 / deblock=1:-1:-1 / analyse=0x3:0x113 / me=umh / subme=11 / psy=1 / psy_rd=1.00:0.00 / mixed_ref=1 / me_range=48 / chroma_me=1 / trellis=2 / 8x8dct=1 / cqm=0 / deadzone=21,11 / fast_pskip=0 / chroma_qp_offset=-2 / threads=6 / lookahead_threads=1 / sliced_threads=0 / nr=0 / decimate=0 / interlaced=0 / bluray_compat=0 / constrained_intra=0 / bframes=16 / b_pyramid=2 / b_adapt=2 / b_bias=0 / direct=3 / weightb=1 / open_gop=0 / weightp=2 / keyint=250 / keyint_min=23 / scenecut=40 / intra_refresh=0 / rc_lookahead=60 / rc=2pass / mbtree=1 / bitrate=6224 / ratetol=1.0 / qcomp=0.60 / qpmin=0 / qpmax=69 / qpstep=4 / cplxblur=20.0 / qblur=0.5 / vbv_maxrate=50000 / vbv_bufsize=62500 / nal_hrd=none / filler=0 / ip_ratio=1.40 / aq=3:1.00
Язык : English
Default : Да
Forced : Нет
Цветовой диапазон : Limited
Основные цвета : BT.709
Характеристики трансфера : BT.709
Коэффициенты матрицы : BT.709

Аудио #1
Идентификатор : 2
Формат : AC-3
Формат/Информация : Audio Coding 3
Параметр Endianness формата : Big
Идентификатор кодека : A_AC3
Продолжительность : 1 ч. 49 м.
Вид битрейта : Постоянный
Битрейт : 128 Кбит/сек
Каналы : 2 канала
Расположение каналов : Front: L R
Частота : 48,0 КГц
Частота кадров : 31,250 кадров/сек (1536 SPF)
Битовая глубина : 16 бит
Метод сжатия : С потерями
Размер потока : 101 Мбайт (2%)
Заголовок : MVO | СТС
Язык : Russian
ServiceKind/String : Complete Main
Default : Да
Forced : Нет

Аудио #2
Идентификатор : 3
Формат : AC-3
Формат/Информация : Audio Coding 3
Параметр Endianness формата : Big
Идентификатор кодека : A_AC3
Продолжительность : 1 ч. 49 м.
Вид битрейта : Постоянный
Битрейт : 160 Кбит/сек
Каналы : 2 канала
Расположение каналов : Front: L R
Частота : 48,0 КГц
Частота кадров : 31,250 кадров/сек (1536 SPF)
Битовая глубина : 16 бит
Метод сжатия : С потерями
Размер потока : 126 Мбайт (2%)
Заголовок : MVO | Варус видео
Язык : Russian
ServiceKind/String : Complete Main
Default : Нет
Forced : Нет

Аудио #3
Идентификатор : 4
Формат : AC-3
Формат/Информация : Audio Coding 3
Параметр Endianness формата : Big
Идентификатор кодека : A_AC3
Продолжительность : 1 ч. 49 м.
Вид битрейта : Постоянный
Битрейт : 384 Кбит/сек
Каналы : 6 каналов
Расположение каналов : Front: L C R, Side: L R, LFE
Частота : 48,0 КГц
Частота кадров : 31,250 кадров/сек (1536 SPF)
Битовая глубина : 16 бит
Метод сжатия : С потерями
Размер потока : 302 Мбайт (5%)
Заголовок : AVO | Л. Володарский
Язык : Russian
ServiceKind/String : Complete Main
Default : Нет
Forced : Нет

Аудио #4
Идентификатор : 5
Формат : AC-3
Формат/Информация : Audio Coding 3
Параметр Endianness формата : Big
Идентификатор кодека : A_AC3
Продолжительность : 1 ч. 49 м.
Вид битрейта : Постоянный
Битрейт : 384 Кбит/сек
Каналы : 6 каналов
Расположение каналов : Front: L C R, Side: L R, LFE
Частота : 48,0 КГц
Частота кадров : 31,250 кадров/сек (1536 SPF)
Битовая глубина : 16 бит
Метод сжатия : С потерями
Размер потока : 302 Мбайт (5%)
Заголовок : Original
Язык : English
ServiceKind/String : Complete Main
Default : Нет
Forced : Нет

Текст
Идентификатор : 6
Формат : UTF-8
Идентификатор кодека : S_TEXT/UTF8
Идентификатор кодека/Информация : UTF-8 Plain Text
Язык : English
Default : Нет
Forced : Нет

Меню
00:00:00.000 : en:Studio Logos
00:00:11.000 : en:Opening Credits
00:00:21.000 : en:Judy and Yale Get Married; Synagogue
00:01:29.000 : en:Judy and Yale Celebrate; Reception Hall
00:03:02.000 : en:Mr. Waxman Shows Judy a Surprise; Multiple Locations
00:05:20.000 : en:Yale Asks Judy for a Quickie; Multiple Locations
00:06:41.000 : en:Mr. and Mrs. Benjamin Give Judy and Yale a Wedding Gift; Reception Hall
00:08:26.000 : en:Judy Gets a Surprise; Judy and Yale's Bedroom
00:10:52.000 : en:Judy and Her Family Attend Yale's Funeral; Synagogue
00:11:27.000 : en:Judy's Family Tries to Comfort Her; Multiple Locations
00:13:49.000 : en:Judy Receives Some Advice; Multiple Locations
00:16:13.000 : en:Judy Meets with Sgt. Jim; Multiple Locations
00:19:22.000 : en:Judy Gets Inducted into the Army; Induction Room
00:19:47.000 : en:Judy Gets In Trouble by Sgt. Ross; Multiple Locations
00:22:33.000 : en:The Ladies Get Inspected by Capt. Lewis; Barracks
00:27:10.000 : en:Judy Cleans the Bathroom and Gets Awaken Early; Multiple Locations
00:28:29.000 : en:Col. Thornbush Informs the Privates about the Training Camp; Fort Biloxi
00:30:01.000 : en:Judy Goes through Basic Training; Multiple Locatons
00:32:58.000 : en:Judy and Pvt. Gianelli Get into a Fight; Multiple Locations
00:35:22.000 : en:Judy Tries to Escape and the Priviates Get Punished; Multiple Locations
00:38:05.000 : en:Visitors Surprise Judy; Day Room
00:42:23.000 : en:Judy Starts to Improve; Multiple Locations
00:43:46.000 : en:Judy and the Privates Get Their Assigned Location; Multiple Locations
00:45:16.000 : en:The Ladies Swap Stories; Multiple Locations
00:48:55.000 : en:The Ladies Make a Plan and Sneak Up on the Red Team; Multiple Locations
00:51:18.000 : en:The Ladies Capture the Red Team; Multiple Locations
00:54:19.000 : en:The Ladies Get to Know Col. Thornbush; Helicopter
00:55:36.000 : en:The Privates Have a Surprise Inspection; Barracks
00:58:42.000 : en:The Privates Pull a Prank on Capt. Lewis; Multiple Locations
01:01:34.000 : en:Col. Thornbush Speaks at the Ceremony; Fort Bolxi
01:03:02.000 : en:Judy Chats with Some Old Friends; Bar
01:07:11.000 : en:Judy and Henri Get to Know Each Other; Multiple Locations
01:09:45.000 : en:Judy and Henri Talk and Part Ways; Multiple Locations
01:12:07.000 : en:Judy Checks to See Where She Is Assigned; Fort Boloxi
01:13:01.000 : en:Judy Does Her Thornbird Training; Mulitple Locations
01:14:08.000 : en:Judy Meets Mrs. Thornbush; Multiple Locations
01:15:55.000 : en:Judy Gets Scared to Jump out of the Plane; Multiple Locations
01:17:43.000 : en:Col. Thornbush Reassigns Judy to a Different Base; Col. Thornbush's Office
01:19:19.000 : en:Judy Arrives at SHAPE; Multiple Locations
01:21:14.000 : en:Judy Meets with Henri; Multiple Locations
01:22:22.000 : en:Judy Cleans Up After Henri's Dog; Henri's House
01:24:50.000 : en:Judy Gets a Surprise during Her Meeting; Conference Room
01:25:59.000 : en:Capt. Lewis Warns Judy to Behave; Multiple Locations
01:26:38.000 : en:Judy and Henri Talk Relationships; Henri's House
01:28:03.000 : en:Judy and Henry Spend Time Together; Multiple Locations
01:29:01.000 : en:Capt. Lewis Questions Judy about Her Relationship with Henri; SHAPE
01:31:08.000 : en:Judy's Parents Get Some News; Benjamin House
01:31:50.000 : en:Gabrielle Makes a Mess; Henri's House
01:32:57.000 : en:Henri Spots His Ex Girlfriend; Street
01:33:55.000 : en:Judy and Henri Talk about Their Relationship; Restaurant
01:37:09.000 : en:Judy Talks to Henri about Not Having a Life; Multiple Locations
01:38:33.000 : en:Judy Meets Her Parents; Airport
01:39:40.000 : en:Judy Asks Henri about the Jewelry She Found; Kitchen
01:41:26.000 : en:Judy Receives Bad News; Multiple Locations
01:42:14.000 : en:Judy and Henri Get into a Fight; Multiple Locations
01:43:37.000 : en:Judy Calls the Wedding Off; Multiple Locations
01:47:16.000 : en:End Credits
piratbit.org



Скачать Рядовой Бенджамин через торрент https://c.radikal.ru/c27/1909/61/6bd50ba36f50.jpg Скачать фильм Рядовой Бенджамин через торрент бесплантно в хорошем качестве Описание: После серьезного душевного потрясения девушка из хорошей семьи поступает на службу в вооруженные силы. Казалось бы, армия — не ... 10 10 2
Торрент: Зарегистрирован [2019-09-11 12:34] · скачан: 12 раз
Статус: √ проверено
Размер: 5.58 GB
Как cкачать? Как скачать Рядовой Бенджамин через торрент | qTorrent


>> Регистрируемся здесь <<






Отзывы и комментарии о схеме читаем и пишем здесь: ---> Отзывы и комментарии о схеме

Новые благодарочки в телеграм довольных пользователей:
скриншот   скриншот   скриншот   скриншот   скриншот
    Дорогой пользователь! Огромная просьба, поблагодарите релизера, оцените раздачу и оставьте свои комментарий, если Вы скачали Рядовой Бенджамин через торрент бесплатно! Внесите свою лепту в развитие PiratBit!
    Комментировать посты могут только пользователи прошедшие не сложную регистрацию
    Показать сообщения:    

    Рядовой Бенджамин через торрент
    Скачать бесплатно Рядовой Бенджамин
    Рядовой Бенджамин скачать торрент
    Рядовой Бенджамин смотреть онлайн
    Cкачать фильм Рядовой Бенджамин бесплатно
    Рядовой Бенджамин скачать торрент в хорошем качестве
    Рядовой Бенджамин смотреть онлайн бесплатно в хорошем качестве


    Вы не можете начинать темы
    Вы не можете отвечать на сообщения
    Вы не можете редактировать свои сообщения
    Вы не можете удалять свои сообщения
    Вы не можете голосовать в опросах
    Вы не можете прикреплять файлы к сообщениям
    Вы можете скачивать файлы