Достать ножи: Стеклянная луковица

MVO

Добыча

Дубляж

Уэнсдэй

1 сезон

Тор

Дубляж

13 клиническая

1 сезон

Жестокая ночь

MVO

Одни из нас

1 сезон

Deluxe

pack

Рекомендуем

30

Пиратка

ВАЖНО

ВАЖНО

Ghostwire

Пиратка

jed

RePack

nioh2

RePack

RDR2

RePack

NEED FOR SPEED™ PAYBACK

RePack

скачать торрент

Кинопоиск HD

Острые козырьки 6 сезон

6 сезон

FAR CRY 6

RePack

скачать торрент

Лицензия

скачать торрент

MVO

1

1 сезон

скачать торрент

1 сезон

скачать торрент

Лицензия

  

Реинкарнация / Hereditary (Ари Астер) [2018, ужасы, триллер, драма, детектив, UHD BDRemux 2160p] [Dolby Vision TV] Дубляж [Лицензия]

Реинкарнация через торрент piratbit.org

Размер: 67.14 GB | Добавлен: 3 года 4 мес. назад | Торрент скачан:28 раз
Смотреть онлайн | Скачать | Поддержите нас   

14-09-2019 16:35 Реинкарнация Скачать торрент  

Реинкарнация / Hereditary«У каждой родословной есть свои тайны»
Год выпуска: 2018
Страна: США
Жанр: ужасы, триллер, драма, детектив
Продолжительность: 02:07:25
Перевод: Дублированный | Лицензия
Субтитры: отсутствуют

Режиссер: Ари Астер

rating

В ролях: Алекс Вулф, Гэбриел Бирн, Тони Коллетт, Милли Шапиро, Кристи Саммерхэйс, Морган Ланд, Мэллори Бехтель, Джейк Браун, Харрисон Нелл, Брианн Рейчел

Описание: После смерти матери Энни Грэхем в её ранее спокойном доме начинает твориться нечто необъяснимое. Теперь под угрозой жизнь её близких. С каждым днём открываются новые ужасающие секреты их семьи. Энни осознаёт, что эти кошмары берут своё начало в далёком прошлом. Сможет ли она найти ключ к тайне зловещего проклятия, которое передаётся из поколения в поколение...

Качество: UHD BDRemux 2160p | Dolby Vision TV
Формат: MP4

Видео: HEVC HDR, 67.6 Mбит/с, 3840x2160, 23.976 Кадр/с
Аудио: 48 kHz, AC3, 5.1, 640 Kbps | Дублированный | RUS |
Данный вид релизов (контейнер MP4) предназначен для встроенного в ТВ (соответственно, с поддержкой DV) плеер.
Т.Е. Можно использовать как USB flash/HDD, так и DLNA / Plex - подобные сервисы/программы. дополнительный-внешний плеер не обязателен.

Внимание!
На моделях LG 2016 возможны сюрпризы "через раз", 2017-2018 должно идти без сюрпризов )
скриншот  скриншот  скриншот  скриншот  

Общее
Полное имя : \\synology\downloads\Hereditary.2018.DV.mp4
Формат : MPEG-4
Профиль формата : Base Media / Version 2
Идентификатор кодека : mp42 (mp42/dby1/isom)
Размер файла : 67,1 Гбайт
Продолжительность : 2 ч. 7 м.
Общий поток : 75,4 Мбит/сек
Дата кодирования : UTC 2019-09-14 06:37:06
Дата пометки : UTC 2019-09-14 06:37:06

Видео #1
Идентификатор : 1
Формат : HEVC
Формат/Информация : High Efficiency Video Coding
Профиль формата : Main 10@L5.1@High
HDR_Format/String : SMPTE ST 2086, HDR10 compatible
Идентификатор кодека : hev1
Идентификатор кодека/Информация : High Efficiency Video Coding
Продолжительность : 2 ч. 7 м.
Битрейт : 67,6 Мбит/сек
Ширина : 3840 пикселей
Высота : 2160 пикселей
Соотношение сторон : 16:9
Режим частоты кадров : Постоянный
Частота кадров : 23,976 (24000/1001) кадра/сек
Цветовое пространство : YUV
Субдискретизация насыщенности : 4:2:0 (Type 2)
Битовая глубина : 10 бит
Бит/(Пиксели*Кадры) : 0.340
Размер потока : 60,2 Гбайт (90%)
Default : Нет
Дата кодирования : UTC 2019-09-14 06:37:06
Дата пометки : UTC 2019-09-14 06:37:06
Цветовой диапазон : Limited
Основные цвета : BT.2020
Характеристики трансфера : PQ
Коэффициенты матрицы : BT.2020 non-constant
MasteringDisplay_ColorPrimaries : Display P3
MasteringDisplay_Luminance : min: 0.0001 cd/m2, max: 1000 cd/m2
MaxCLL : 901 cd/m2
MaxFALL : 290 cd/m2
Codec configuration box : hvcC

Видео #2
Идентификатор : 2
Формат : HEVC
Формат/Информация : High Efficiency Video Coding
Профиль формата : Main 10@L5.1@High
HDR_Format/String : Dolby Vision, Version 1.0, dvhe.07.06, EL+RPU / SMPTE ST 2086, HDR10 compatible
Идентификатор кодека : dvhe
Идентификатор кодека/Информация : High Efficiency Video Coding with Dolby Vision
Продолжительность : 2 ч. 7 м.
Битрейт : 7147 Кбит/сек
Ширина : 1920 пикселей
Высота : 1080 пикселей
Соотношение сторон : 16:9
Режим частоты кадров : Постоянный
Частота кадров : 23,976 (24000/1001) кадра/сек
Цветовое пространство : YUV
Субдискретизация насыщенности : 4:2:0 (Type 2)
Битовая глубина : 10 бит
Бит/(Пиксели*Кадры) : 0.144
Размер потока : 6,36 Гбайт (9%)
Default : Нет
Дата кодирования : UTC 2019-09-14 06:37:06
Дата пометки : UTC 2019-09-14 06:37:06
Цветовой диапазон : Limited
Основные цвета : BT.2020
Характеристики трансфера : PQ
Коэффициенты матрицы : BT.2020 non-constant
MasteringDisplay_ColorPrimaries : Display P3
MasteringDisplay_Luminance : min: 0.0001 cd/m2, max: 1000 cd/m2
Codec configuration box : hvcC+dvcC

Аудио
Идентификатор : 3
Формат : AC-3
Формат/Информация : Audio Coding 3
Коммерческое название : Dolby Digital
Идентификатор кодека : ac-3
Продолжительность : 2 ч. 7 м.
Вид битрейта : Постоянный
Битрейт : 640 Кбит/сек
Каналы : 6 каналов
ChannelLayout : L R C LFE Ls Rs
Частота : 48,0 КГц
Частота кадров : 31,250 кадров/сек (1536 SPF)
Битовая глубина : 16 бит
Метод сжатия : С потерями
Размер потока : 583 Мбайт (1%)
Язык : Russian
ServiceKind/String : Complete Main
Default : Нет
Дата кодирования : UTC 2019-09-14 06:37:06
Дата пометки : UTC 2019-09-14 06:37:06




Скачать Реинкарнация через торрент http://img10.lostpic.net/2019/03/12/c89a7dffae7f4a1275fcd07b87ef0465.jpg Скачать, смотреть онлайн Реинкарнация бесплантно в хорошем качестве Описание: После смерти матери Энни Грэхем в её ранее спокойном доме начинает твориться нечто необъяснимое. Теперь под угрозой жизнь её ... 10 10 3
Торрент: Зарегистрирован [2019-09-14 16:35] · скачан: 28 раз
Статус: √ проверено
Размер: 67.14 GB
Как cкачать? Как скачать Реинкарнация через торрент | UTorrent

% Раздел Тема Автор DL S | L
Фильмы 2018 [DVDrip, WEB-DLRip, HDrip] (DUB, MVO) [ 1.46 GB ] Реинкарнация / Hereditary | Лицензия | HDRip-AVC bober100 Скачать
1 | 0
Ultra HD (UHD: 2K, 4K, 8K) [ 67.98 GB ] Реинкарнация / Hereditary | Лицензия | 2160p sheker187 Скачать
1 | 0
Ultra HD (UHD: 2K, 4K, 8K) [ 66.59 GB ] Реинкарнация / Hereditary | Лицензия | 2160p bober100 Скачать
1 | 0
Фильмы 2018 [DVDrip, WEB-DLRip, HDrip] (DUB, MVO) [ 1.46 GB ] Реинкарнация / Hereditary | Лицензия | BDRip Twi7ter Скачать
1 | 0
Фильмы 2018 [DVDrip, WEB-DLRip, HDrip] (DUB, MVO) [ 2.18 GB ] Реинкарнация / Hereditary | Лицензия | BDRip Twi7ter Скачать
1 | 0
Ultra HD (UHD: 2K, 4K, 8K) [ 79.49 GB ] Реинкарнация / Hereditary | Дубляж | 2160p sheker187 Скачать
1 | 0
Ultra HD (UHD: 2K, 4K, 8K) [ 19.77 GB ] Реинкарнация / Hereditary | Лицензия R5 | 2160p bober100 Скачать
1 | 0

28-11-2019 20:33  


Отключить вcю реклaмy на сайте, в т.ч. и в плеере онлайн просмотра!

    Дорогой пользователь! Огромная просьба, поблагодарите релизера, оцените раздачу и оставьте свои комментарий, если Вы скачали Реинкарнация через торрент бесплатно!!
    Комментировать посты могут только пользователи прошедшие не сложную регистрацию
    Показать сообщения:    


    Реинкарнация через торрент
    Скачать бесплатно Реинкарнация
    Реинкарнация скачать торрент
    Реинкарнация смотреть онлайн
    Cкачать фильм Реинкарнация бесплатно
    Реинкарнация скачать торрент в хорошем качестве
    Реинкарнация смотреть онлайн бесплатно в хорошем качестве
    Вы не можете начинать темы
    Вы не можете отвечать на сообщения
    Вы не можете редактировать свои сообщения
    Вы не можете удалять свои сообщения
    Вы не можете голосовать в опросах
    Вы не можете прикреплять файлы к сообщениям
    Вы можете скачивать файлы
    Реинкарнация / Hereditary [2018, ужасы, триллер, драма, детектив, UHD BDRemux 2160p] [Dolby Vision TV] Дубляж [Лицензия] смотреть онлайн, скачать торрент picoco.icu