Достать ножи: Стеклянная луковица

MVO

Добыча

Дубляж

Уэнсдэй

1 сезон

Тор

Дубляж

13 клиническая

1 сезон

Жестокая ночь

MVO

Одни из нас

1 сезон

Deluxe

pack

Рекомендуем

30

Пиратка

ВАЖНО

ВАЖНО

Ghostwire

Пиратка

jed

RePack

nioh2

RePack

RDR2

RePack

NEED FOR SPEED™ PAYBACK

RePack

скачать торрент

Кинопоиск HD

Острые козырьки 6 сезон

6 сезон

FAR CRY 6

RePack

скачать торрент

Лицензия

скачать торрент

MVO

1

1 сезон

скачать торрент

1 сезон

скачать торрент

Лицензия

  

Хижина в лесу / The Cabin in the Woods (Дрю Годдард) [2012, Ужасы, триллер, UHD BDRemux 2160p] [Dolby Vision TV] Дубляж [Лицензия]

Хижина в лесу через торрент piratbit.org

Качают: 1 [ 0 KB/s ]
Размер: 54.34 GB | Добавлен: 3 года 4 мес. назад | Торрент скачан:25 раз
Смотреть онлайн | Скачать | Поддержите нас   

15-09-2019 18:30 Хижина в лесу Скачать торрент  

Хижина в лесу / The Cabin in the Woods
Год выпуска: 2012
Страна: США
Жанр: Ужасы, триллер
Продолжительность: 01:35:03
Перевод: Дублированный | Лицензия
Субтитры: отсутствуют

Режиссер: Дрю Годдард

rating

В ролях:

Кристен Коннолли, Крис Хемсворт, Анна Хатчисон, Фрэн Кранц, Джесси Уильямс, Ричард Дженкинс, Брэдли Уитфорд, Брайан Дж. Уайт, Эми Акер, Тим ДеЗам, Том Ленк, Дэн Пэйн
Описание: Группе друзей, молодым клеркам, предстоит провести ночь в лесу в стенах причудливого дома. За закрытыми дверями происходит что-то странное и ужасное. Молодые люди даже не успевают понять, что именно им угрожает, но единственное, что они знают — что время быстро уходит.

Качество: UHD BDRemux 2160p | Dolby Vision TV
Формат: MP4

Видео: HEVC HDR, 72.8 Mбит/с, 3840x2160, 23.976 кадр/с
Аудио#1: 48 kHz / 16 bits, AC3, 6ch, ~640.00 kbps avg /RUS/- Дубляж
Аудио#2: 48 kHz / 16 bits, AC3, 6ch, ~640.00 kbps avg /ENG/
Данный вид релизов (контейнер MP4) предназначен для встроенного в ТВ (соответственно, с поддержкой DV) плеер.
Т.Е. Можно использовать как USB flash/HDD, так и DLNA / Plex - подобные сервисы/программы. дополнительный-внешний плеер не обязателен.

Внимание!
На моделях LG 2016 возможны сюрпризы "через раз", 2017-2018 должно идти без сюрпризов )
скриншот  скриншот  скриншот  

скриншот  скриншот  скриншот  

General
Complete name : D:\Hizhina_DV.mp4
Format : MPEG-4
Format profile : Base Media / Version 2
Codec ID : mp42 (mp42/iso6/isom/msdh/dby1)
File size : 54.3 GiB
Duration : 1 h 35 min
Overall bit rate : 81.8 Mb/s
Encoded date : UTC 2019-09-14 19:30:36
Tagged date : UTC 2019-09-14 19:30:36

Video #1
ID : 1
Format : HEVC
Format/Info : High Efficiency Video Coding
Format profile : Main 10@L5.1@High
HDR format : SMPTE ST 2086, HDR10 compatible
Codec ID : hev1
Codec ID/Info : High Efficiency Video Coding
Duration : 1 h 35 min
Bit rate : 72.8 Mb/s
Width : 3 840 pixels
Height : 2 160 pixels
Display aspect ratio : 16:9
Frame rate mode : Constant
Frame rate : 23.976 (24000/1001) FPS
Color space : YUV
Chroma subsampling : 4:2:0 (Type 2)
Bit depth : 10 bits
Bits/(Pixel*Frame) : 0.366
Stream size : 48.3 GiB (89%)
Default : No
Encoded date : UTC 2019-09-14 19:30:36
Tagged date : UTC 2019-09-14 19:30:36
Color range : Limited
Color primaries : BT.2020
Transfer characteristics : PQ
Matrix coefficients : BT.2020 non-constant
Mastering display color primaries : Display P3
Mastering display luminance : min: 0.0050 cd/m2, max: 1000 cd/m2
Maximum Content Light Level : 1000 cd/m2
Maximum Frame-Average Light Level : 239 cd/m2
Codec configuration box : hvcC

Video #2
ID : 2
Format : HEVC
Format/Info : High Efficiency Video Coding
Format profile : Main 10@L5.1@High
HDR format : Dolby Vision, Version 1.0, dvhe.07.06, EL+RPU / SMPTE ST 2086, HDR10 compatible
Codec ID : dvhe
Codec ID/Info : High Efficiency Video Coding with Dolby Vision
Duration : 1 h 35 min
Bit rate : 7 788 kb/s
Width : 1 920 pixels
Height : 1 080 pixels
Display aspect ratio : 16:9
Frame rate mode : Constant
Frame rate : 23.976 (24000/1001) FPS
Color space : YUV
Chroma subsampling : 4:2:0 (Type 2)
Bit depth : 10 bits
Bits/(Pixel*Frame) : 0.157
Stream size : 5.17 GiB (10%)
Default : No
Encoded date : UTC 2019-09-14 19:30:36
Tagged date : UTC 2019-09-14 19:30:36
Color range : Limited
Color primaries : BT.2020
Transfer characteristics : PQ
Matrix coefficients : BT.2020 non-constant
Mastering display color primaries : Display P3
Mastering display luminance : min: 0.0050 cd/m2, max: 1000 cd/m2
Codec configuration box : hvcC+dvcC

Audio #1
ID : 3
Format : AC-3
Format/Info : Audio Coding 3
Commercial name : Dolby Digital
Codec ID : ac-3
Duration : 1 h 35 min
Bit rate mode : Constant
Bit rate : 640 kb/s
Channel(s) : 6 channels
Channel layout : L R C LFE Ls Rs
Sampling rate : 48.0 kHz
Frame rate : 31.250 FPS (1536 SPF)
Bit depth : 16 bits
Compression mode : Lossy
Stream size : 435 MiB (1%)
Language : Russian
Service kind : Complete Main
Default : No
Encoded date : UTC 2019-09-14 19:30:36
Tagged date : UTC 2019-09-14 19:30:36

Audio #2
ID : 4
Format : AC-3
Format/Info : Audio Coding 3
Commercial name : Dolby Digital
Codec ID : ac-3
Duration : 1 h 35 min
Bit rate mode : Constant
Bit rate : 640 kb/s
Channel(s) : 6 channels
Channel layout : L R C LFE Ls Rs
Sampling rate : 48.0 kHz
Frame rate : 31.250 FPS (1536 SPF)
Bit depth : 16 bits
Compression mode : Lossy
Stream size : 435 MiB (1%)
Language : English
Service kind : Complete Main
Default : No
Encoded date : UTC 2019-09-14 19:30:36
Tagged date : UTC 2019-09-14 19:30:36




Скачать Хижина в лесу через торрент https://pic1.kartinco.top/images/11/ka8i9.jpg Скачать, смотреть онлайн Хижина в лесу бесплантно в хорошем качестве Описание: Группе друзей, молодым клеркам, предстоит провести ночь в лесу в стенах причудливого дома. За закрытыми дверями происходит что-то ... 10 10 3
Торрент: Зарегистрирован [2019-09-15 18:30] · скачан: 25 раз
Статус: √ проверено
Размер: 54.34 GB
Как cкачать? Как скачать Хижина в лесу через торрент | UTorrent

% Раздел Тема Автор DL S | L
Ultra HD (UHD: 2K, 4K, 8K) [ 22.6 GB ] Хижина в лесу / The Cabin in the Woods | DUB+VO+6xAVO+MVO | 2160p bober100 Скачать
1 | 0
Ultra HD (UHD: 2K, 4K, 8K) [ 75.53 GB ] Хижина в лесу / The Cabin in the Woods | DUB + 6xAVO + VO | 2160p sheker187 Скачать
1 | 0
Фильмы [HD 720p, 1080p] (Хороший звук DUB, MVO) [ 3.9 GB ] Хижина в лесу / The Cabin in the Woods | Лицензия | 1080p, [HEVC Мичман37 Скачать
1 | 0
Ultra HD (UHD: 2K, 4K, 8K) [ 73.53 GB ] Хижина в лесу / The Cabin in the Woods | DUB+VO+5xAVO | 2160p bober100 Скачать
1 | 0
Фильмы [HD 720p, 1080p] (Хороший звук DUB, MVO) [ 5.76 GB ] Хижина в лесу / The Cabin in the Woods | Лицензия | 1080p bober100 Скачать
1 | 0
Фильмы 2011 [ 1.46 GB ] Хижина в лесу / The Cabin in the Woods | | HDRip, лицензия SD Скачать
2 | 0
Фильмы [HD 720p, 1080p] (Хороший звук DUB, MVO) [ 6.38 GB ] Хижина в лесу / The Cabin in the Woods | DUB + AVO + VO | 720p от potroks potroks Скачать
1 | 0

28-11-2019 20:33  


Отключить вcю реклaмy на сайте, в т.ч. и в плеере онлайн просмотра!

    Дорогой пользователь! Огромная просьба, поблагодарите релизера, оцените раздачу и оставьте свои комментарий, если Вы скачали Хижина в лесу через торрент бесплатно!!
    Комментировать посты могут только пользователи прошедшие не сложную регистрацию
    Показать сообщения:    


    Хижина в лесу через торрент
    Скачать бесплатно Хижина в лесу
    Хижина в лесу скачать торрент
    Хижина в лесу смотреть онлайн
    Cкачать фильм Хижина в лесу бесплатно
    Хижина в лесу скачать торрент в хорошем качестве
    Хижина в лесу смотреть онлайн бесплатно в хорошем качестве
    Вы не можете начинать темы
    Вы не можете отвечать на сообщения
    Вы не можете редактировать свои сообщения
    Вы не можете удалять свои сообщения
    Вы не можете голосовать в опросах
    Вы не можете прикреплять файлы к сообщениям
    Вы можете скачивать файлы
    Хижина в лесу / The Cabin in the Woods [2012, Ужасы, триллер, UHD BDRemux 2160p] [Dolby Vision TV] Дубляж [Лицензия] смотреть онлайн, скачать торрент picoco.icu