Лицензия

MVO

1

1 сезон

Лицензия

Лицензия

13

MVO

1 сезон

Deluxe Edition

pack

Рекомендуем

30

Repack

ВАЖНО

ВАЖНО

Ghostwire

RePack

jed

RePack

fifa19

RePack

RDR2

RePack

NEED FOR SPEED™ PAYBACK

RePack

Кинопоиск HD

 Острые козырьки 6 сезон

6 сезон

FAR CRY 6

RePack

Лицензия

MVO

1

1 сезон

1 сезон

Лицензия

  

Безбородый обманщик (Шакен Айманов) [1964, СССР, комедия, VHSRip от AVP Studio]

Безбородый обманщик через торрент piratbit.org

Качают: 1 [ 0 KB/s ]
Размер: 745 MB | Добавлен: 3 года назад | Торрент скачан:16 раз
Смотреть онлайн Безбородый обманщик | Скачать   

17-09-2019 06:42 Безбородый обманщик Скачать торрент  

Безбородый обманщик
Страна: СССР
Производство: Казахфильм

Жанр: комедия
Год выпуска: 1964
Продолжительность: 01:11:52

Перевод: Не требуется
Cубтитры: нет
Оригинальная аудиодорожка: русский

Режиссер: Шакен Айманов

В ролях:
Шакен Айманов, Калыбек Куанышбаев, Курманбек Жандарбеков, Атайбек Жолумбетов, Серке (Сералы) Кожамкулов, Баян Адилова, Куатбай Абдреимов, Сайфулла Тельгараев, Касымхан Шанин, Рахметулла Сальменов, Елубай (Елеубай) Умурзаков...
Об актёрах подробней

Описание:
Алдар Косе — это не имя, а прозвище. Алдар — означает обманщик, Косе — безбородый. А как звали этого человека на самом деле, да и жил ли он вообще, никто точно не скажет. Но в каждом казахском ауле, в каждой юрте на высокогорном джайлау об Алдар Косе говорят как о своем хорошем знакомом. Рассказывает о нем по — разному, но все сходится на том, что был беден и добр, ненавидел угнетателей народа, боролся с несправедливостью и помогал обиженным...

Исходник: VHS
Качество видео: VHSRip
Формат видео: AVI

Видео: 704x336 (2,095:1), 25,000 кадров/сек, XviD ~ 1248 kbps avg, 0.211 bit/pixel
Аудио: 48 kHz, Dolby Digital AC3 2.0, 192 kbps

Раздача от:
Общее
Полное имя : Bezborodyj.obmanshchik.1964.VHSRip_[New-team]_by_AVP_Studio.avi
Формат : AVI
Формат/Информация : Audio Video Interleave
Размер файла : 745 Мбайт
Продолжительность : 1 ч. 11 м.
Общий поток : 1450 Кбит/сек
Программа кодирования : VirtualDubMod 1.5.10.3 | www.virtualdub-fr.org || (build 2550/release)
Библиотека кодирования : VirtualDubMod build 2550/release

Видео
Идентификатор : 0
Формат : MPEG-4 Visual
Профиль формата : Advanced Simple@L5
Настройки формата : BVOP1 / Custom Matrix
Параметр BVOP формата : 1
Параметр QPel формата : Нет
Параметр GMC формата : Без точки перехода
Параметр матрицы формата : Выборочная
Идентификатор кодека : XVID
Идентификатор кодека/Подсказка : XviD
Продолжительность : 1 ч. 11 м.
Битрейт : 1248 Кбит/сек
Ширина : 704 пикселя
Высота : 336 пикселей
Соотношение сторон : 2,095
Частота кадров : 25,000 кадров/сек
Цветовое пространство : YUV
Субдискретизация насыщенности : 4:2:0
Битовая глубина : 8 бит
Тип развёртки : Прогрессивная
Метод сжатия : С потерями
Бит/(Пиксели*Кадры) : 0.211
Размер потока : 642 Мбайт (86%)
Библиотека кодирования : XviD 73

Аудио
Идентификатор : 1
Формат : AC-3
Формат/Информация : Audio Coding 3
Коммерческое название : Dolby Digital
Идентификатор кодека : 2000
Продолжительность : 1 ч. 11 м.
Вид битрейта : Постоянный
Битрейт : 192 Кбит/сек
Каналы : 2 канала
ChannelLayout : L R
Частота : 48,0 КГц
Частота кадров : 31,250 кадров/сек (1536 SPF)
Битовая глубина : 16 бит
Метод сжатия : С потерями
Размер потока : 98,7 Мбайт (13%)
Выравнивание : Разделение по промежуткам
Продолжительность промежутка : 40 мс. (1,00 видеокадр)
Время предзагрузки промежутка : 500 мс.



Скачать Безбородый обманщик через торрент http://picplus.ru/img/1909/17/be95cfe2.png Скачать, смотреть онлайн Безбородый обманщик бесплантно в хорошем качестве Описание:Алдар Косе — это не имя, а прозвище. Алдар — означает обманщик, Косе — безбородый. А как звали этого человека на самом деле, да и ... 5 10 1
Торрент: Зарегистрирован [2019-09-17 06:42] · скачан: 16 раз
Статус: √ проверено
Размер: 745 MB
Как cкачать? Как скачать Безбородый обманщик через торрент | UTorrent

% Раздел Тема Автор DL S | L
Кино СССР [ 744 MB ] Безбородый обманщик | | Безбородый обманщик (Шакен Айманов AVP Studio Скачать
1 | 0

28-11-2019 20:33  

Отключить вcю реклaмy на сайте

    Дорогой пользователь! Огромная просьба, поблагодарите релизера, оцените раздачу и оставьте свои комментарий, если Вы скачали Безбородый обманщик через торрент бесплатно!!
    Комментировать посты могут только пользователи прошедшие не сложную регистрацию
    Показать сообщения:    


    Безбородый обманщик через торрент
    Скачать бесплатно Безбородый обманщик
    Безбородый обманщик скачать торрент
    Безбородый обманщик смотреть онлайн
    Cкачать фильм Безбородый обманщик бесплатно
    Безбородый обманщик скачать торрент в хорошем качестве
    Безбородый обманщик смотреть онлайн бесплатно в хорошем качестве
    Вы не можете начинать темы
    Вы не можете отвечать на сообщения
    Вы не можете редактировать свои сообщения
    Вы не можете удалять свои сообщения
    Вы не можете голосовать в опросах
    Вы не можете прикреплять файлы к сообщениям
    Вы можете скачивать файлы