Ссылка на приватное зеркало нашего сайта всего за 1$. Внимание количество ограничено!!!

2 сезон

iTunes

1 сезон

1

iTunes

iTunes

iTunes

1 сезон

RePack

30

ИГРА 18+

pack

ВАЖНО

!!Акция!!

Alien_RageХит недели

RePack

MK11
pack

Забери бонус

RePack

jed

!!Акция!!

Alien_Rage

RePack

fifa19

RePack

Assassins Creed: Odyssey

RePack

NEED FOR SPEED™ PAYBACK

4 сезон

9 сезон

Бесстыжие 9 сезон

Все сериалы

все сериалы на PB.wtf

RePack

FAR CRY 5
  

Паровоз Генерал / The General (Бастер Китон, Клайд Брукман) [1926, драма, комедия, приключения, вестерн, боевик, военный, BDRip 1080p by msltel] piratbit.org

Паровоз Генерал через торрент piratbit.org

Размер: 5.4 GB | Добавлен: 1 год 1 мес. назад | Торрент скачан:3 раза
Скачать  

17-09-2019 09:42 Паровоз Генерал Скачать торрент  

Название: Паровоз Генерал
Оригинальное название: The General
Год выпуска: 1926
Страна: США
Жанр: драма, комедия, приключения, вестерн, боевик, военный
Продолжительность: 01:18:44
Перевод: не требуется. Немое кино

Режиссер: Бастер Китон, Клайд Брукман
В ролях: Бастер Китон, Мэрион Макк, Глен Кэвендер, Джим Фарли, Фредерик Врум, Чарльз Генри Смит, Фрэнк Барнс, Джо Китон, Майк Донлин, Том Ноун

О фильме: Юного Джонни Грэя в армию Конфедерации не взяли, и его возлюбленная Аннабел Ли отвергает его, обозвав трусом. Тем не менее, он со своим "напарником" паровозом утирает всем нос, выигрывая сражение. Джонни воюет с угонщиками поезда, непослушной пушкой и непредсказуемой силой судьбы. При этом, любимец нашего героя паровоз становится одним из главных персонажей комедии. Настаивая на абсолютной точности даже в мельчайших деталях, Китон создает поразительно эпическую картину, с десятками костюмированных сцен, крупных планов и захватывающим падением настоящего паровоза с горящего моста в реку... В основу сценария положен эпизод Гражданской войны Севера и Юга, связанный с угоном паровоза и последующей погоней локомотивов, описанный бывшим капралом северян Уильямом Питтенджером в книге 1863 года «Отвага и страдание: история великого железнодорожного приключения».



Качество: BDRip 1080p
Формат: MKV
Видео: MPEG-4 AVC, 9288 Кбит/с, 1422x1080
Аудио: AC3, 448 kbps, 6 ch, 48 kHz [музыкальное сопровождение Карла Дэвиса]
Субтитры: русские
Главы/чаптеры
Общее
Уникальный идентификатор : 242554246731402051051953322567497847041 (0xB67A3FAA448B5BFB8F90E0F77CDE9101)
Полное имя : D:\Video\Паровоз Генерал.1926.BDRip 1080p by msltel.mkv
Формат : Matroska
Версия формата : Version 4
Размер файла : 5,40 Гбайт
Продолжительность : 1 ч. 19 м.
Общий поток : 9737 Кбит/сек
Название фильма : Rip by msltel
Дата кодирования : UTC 2019-09-17 07:55:09
Программа кодирования : mkvmerge v8.2.0 ('World of Adventure') 64bit
Библиотека кодирования : libebml v1.3.1 + libmatroska v1.4.2

Видео
Идентификатор : 1
Формат : AVC
Формат/Информация : Advanced Video Codec
Профиль формата : High@L4.1
Настройки формата : CABAC / 4 Ref Frames
Параметр CABAC формата : Да
Параметр RefFrames формата : 4 кадра
Идентификатор кодека : V_MPEG4/ISO/AVC
Продолжительность : 1 ч. 19 м.
Битрейт : 9288 Кбит/сек
Ширина : 1422 пикселя
Высота : 1080 пикселей
Соотношение сторон : 4:3
Режим частоты кадров : Постоянный
Частота кадров : 24,000 кадра/сек
Цветовое пространство : YUV
Субдискретизация насыщенности : 4:2:0
Битовая глубина : 8 бит
Тип развёртки : Прогрессивная
Бит/(Пиксели*Кадры) : 0.252
Размер потока : 5,15 Гбайт (95%)
Библиотека кодирования : x264 core 157 r2935 545de2f
Настройки программы : cabac=1 / ref=4 / deblock=1:-2:-2 / analyse=0x3:0x113 / me=umh / subme=11 / psy=1 / psy_rd=1.00:0.15 / mixed_ref=1 / me_range=32 / chroma_me=1 / trellis=2 / 8x8dct=1 / cqm=0 / deadzone=21,11 / fast_pskip=0 / chroma_qp_offset=-3 / threads=6 / lookahead_threads=1 / sliced_threads=0 / nr=0 / decimate=1 / interlaced=0 / bluray_compat=0 / constrained_intra=0 / bframes=6 / b_pyramid=2 / b_adapt=2 / b_bias=0 / direct=1 / weightb=1 / open_gop=0 / weightp=2 / keyint=230 / keyint_min=23 / scenecut=40 / intra_refresh=0 / rc_lookahead=40 / rc=crf / mbtree=1 / crf=20.0 / qcomp=0.60 / qpmin=0 / qpmax=69 / qpstep=4 / vbv_maxrate=50000 / vbv_bufsize=62500 / crf_max=0.0 / nal_hrd=none / filler=0 / ip_ratio=1.40 / aq=1:1.00
Язык : English
Default : Да
Forced : Нет

Аудио
Идентификатор : 2
Формат : AC-3
Формат/Информация : Audio Coding 3
Коммерческое название : Dolby Digital
Идентификатор кодека : A_AC3
Продолжительность : 1 ч. 19 м.
Вид битрейта : Постоянный
Битрейт : 448 Кбит/сек
Каналы : 6 каналов
ChannelLayout : L R C LFE Ls Rs
Частота : 48,0 КГц
Частота кадров : 31,250 кадров/сек (1536 SPF)
Метод сжатия : С потерями
Размер потока : 254 Мбайт (5%)
Заголовок : Музыкальное сопровождение Карла Дэвиса
ServiceKind/String : Complete Main
Default : Да
Forced : Нет

Текст
Идентификатор : 3
Формат : UTF-8
Идентификатор кодека : S_TEXT/UTF8
Идентификатор кодека/Информация : UTF-8 Plain Text
Продолжительность : 1 ч. 17 м.
Битрейт : 9 бит/сек
ElementCount : 97
Размер потока : 5,51 Кбайт (0%)
Заголовок : русские
Язык : Russian
Default : Да
Forced : Да
piratbit.org



Скачать Паровоз Генерал через торрент https://c.radikal.ru/c20/1909/f1/b736e832b3d5.jpg Скачать фильм Паровоз Генерал через торрент бесплантно в хорошем качестве О фильме: Юного Джонни Грэя в армию Конфедерации не взяли, и его возлюбленная Аннабел Ли отвергает его, обозвав трусом. Тем не менее, он со ... 10 10 1
Торрент: Зарегистрирован [2019-09-17 09:42] · скачан: 3 раз
Статус: √ проверено
Размер: 5.4 GB
Как cкачать? Как скачать Паровоз Генерал через торрент | qTorrent

% Раздел Тема Автор DL S | L
Классика зарубежного кино [ 2.47 GB ] Паровоз Генерал / The General [1926 военный BDRip 720p by msltel] msltel Скачать
1 | 0

28-11-2019 20:33  

Отключить всю рекламу на сайте

    Дорогой пользователь! Огромная просьба, поблагодарите релизера, оцените раздачу и оставьте свои комментарий, если Вы скачали Паровоз Генерал через торрент бесплатно! Внесите свою лепту в развитие PiratBit!
    Комментировать посты могут только пользователи прошедшие не сложную регистрацию
    Показать сообщения:    

    Паровоз Генерал через торрент
    Скачать бесплатно Паровоз Генерал
    Паровоз Генерал скачать торрент
    Паровоз Генерал смотреть онлайн
    Cкачать фильм Паровоз Генерал бесплатно
    Паровоз Генерал скачать торрент в хорошем качестве
    Паровоз Генерал смотреть онлайн бесплатно в хорошем качестве


    Вы не можете начинать темы
    Вы не можете отвечать на сообщения
    Вы не можете редактировать свои сообщения
    Вы не можете удалять свои сообщения
    Вы не можете голосовать в опросах
    Вы не можете прикреплять файлы к сообщениям
    Вы можете скачивать файлы